Панель пользователя
Регистрация

Воспользуйтесь социальными сетями для входа на https://freerutor.com

vk odnoklassniki facebook mailru yandex google
Популярное
Счетчик
Голосуй за нас
VIP на сайте
Популярное
Товары интернет магазина
загрузка...

Первый мститель: Противостояние (2016) BDRip 1080p | iTunes

Первый мститель: Противостояние  (2016)  BDRip 1080p | iTunes
Участники торрент обмена
Сидов Пиров Скачали
14 2 3144
Характеристика
Размер Файлы
17.42 GB
Поделиться раздачей
Фильмы (720,1080,Blu-Ray)
Наименование: Первый мститель: Противостояние
Оригинальное наименование: Captain America: Civil War
Категория: Фантастика, боевик, приключения
Произведено: США
Режиссер постановщик: Энтони Руссо, Джо Руссо
В главных ролях: Крис Эванс, Роберт Дауни мл., Скарлетт Йоханссон, Себастьян Стэн, Энтони Маки, Дон Чидл, Джереми Реннер, Чедвик Боузман, Пол Беттани, Элизабет Олсен
Краткое описание: Мстители под руководством Капитана Америки оказываются участниками разрушительного инцидента, имеющего международный масштаб. Эти события заставляют правительство задуматься над тем, чтобы начать регулировать действия всех людей с особыми способностями, введя «Акт о регистрации супергероев», вынуждая их раскрыть свои личности и работать на правительственные службы.
  • Видео данные: MPEG-4 AVC, 15000 Кбит/с, 1920x804
    Аудио данные: Русский (AC3, 6 ch, 384 Кбит/с), английский (DTS, 6 ch, 1510 Кбит/с)
    Перевод: Дублированный (iTunes )
    Продолжительность: 02:27:41
    Субтитры: Русские (full), английские (full, SDH)
  • Первый мститель: Противостояние  (2016)  BDRip 1080p | iTunes Первый мститель: Противостояние  (2016)  BDRip 1080p | iTunes Первый мститель: Противостояние  (2016)  BDRip 1080p | iTunes
  • Общее
    Уникальный идентификатор : 230501720549985631776800737723341477608 (0xAD69043ED957EC0BBA6CA4B6AA8616E8)
    Полное имя : D:загрузкиCaptain.America.Civil.War.2016.BDRip.1080p.mkv
    Формат : Matroska
    Версия формата : Version 2
    Размер файла : 17,4 Гбайт
    Продолжительность : 2 ч. 27 м.
    Общий поток : 16,9 Мбит/сек
    Дата кодирования : UTC 2016-08-30 19:33:14
    Программа кодирования : mkvmerge v7.8.0 ('River Man') 32bit built on Apr 3 2015 12:11:22
    Библиотека кодирования : libebml v1.3.1 + libmatroska v1.4.2

    Видео
    Идентификатор : 1
    Формат : AVC
    Формат/Информация : Advanced Video Codec
    Профиль формата : High@L4.1
    Параметр CABAC формата : Да
    Параметр ReFrames формата : 5 кадров
    Идентификатор кодека : V_MPEG4/ISO/AVC
    Продолжительность : 2 ч. 27 м.
    Битрейт : 15,0 Мбит/сек
    Ширина : 1920 пикселей
    Высота : 804 пикселя
    Соотношение сторон : 2,40:1
    Режим частоты кадров : Постоянный
    Частота кадров : 23,976 кадра/сек
    Цветовое пространство : YUV
    Субдискретизация насыщенности : 4:2:0
    Битовая глубина : 8 бит
    Тип развёртки : Прогрессивная
    Бит/(Пиксели*Кадры) : 0.405
    Размер потока : 15,1 Гбайт (87%)
    Библиотека кодирования : x264 core 142 r2431+42 c69a006 tMod [8-bit@all X86]
    Настройки программы : cabac=1 / ref=5 / deblock=1:0:0 / analyse=0x3:0x113 / me=umh / subme=10 / psy=1 / fade_compensate=0.00 / psy_rd=1.05:0.10 / mixed_ref=1 / me_range=48 / chroma_me=1 / trellis=2 / 8x8dct=1 / cqm=0 / deadzone=21,11 / fast_pskip=0 / chroma_qp_offset=-2 / threads=12 / lookahead_threads=1 / sliced_threads=0 / nr=0 / decimate=1 / interlaced=0 / bluray_compat=0 / constrained_intra=0 / fgo=0 / bframes=6 / b_pyramid=2 / b_adapt=2 / b_bias=0 / direct=3 / weightb=1 / open_gop=0 / weightp=2 / keyint=250 / keyint_min=23 / scenecut=40 / intra_refresh=0 / rc=2pass / mbtree=0 / bitrate=15000 / ratetol=2.0 / qcomp=0.70 / qpmin=0:0:0 / qpmax=69:69:69 / qpstep=4 / cplxblur=20.0 / qblur=0.5 / ip_ratio=1.40 / pb_ratio=1.30 / aq=2:1.00 / aq-sensitivity=10.00 / aq-factor=1.00:1.00:1.00 / aq2=0 / aq3=0
    Default : Да
    Forced : Нет

    Аудио #1
    Идентификатор : 2
    Формат : AC-3
    Формат/Информация : Audio Coding 3
    Расширение режима : CM (complete main)
    Параметр Endianness формата : Big
    Идентификатор кодека : A_AC3
    Продолжительность : 2 ч. 27 м.
    Вид битрейта : Постоянный
    Битрейт : 384 Кбит/сек
    Каналы : 6 каналов
    Расположение каналов : Front: L C R, Side: L R, LFE
    Частота : 48,0 КГц
    Битовая глубина : 16 бит
    Метод сжатия : С потерями
    Размер потока : 406 Мбайт (2%)
    Заголовок : iTunes
    Язык : Russian
    Default : Да
    Forced : Нет

    Аудио #2
    Идентификатор : 3
    Формат : DTS
    Формат/Информация : Digital Theater Systems
    Режим : 16
    Параметр Endianness формата : Big
    Идентификатор кодека : A_DTS
    Продолжительность : 2 ч. 27 м.
    Вид битрейта : Постоянный
    Битрейт : 1509 Кбит/сек
    Каналы : 6 каналов
    Расположение каналов : Front: L C R, Side: L R, LFE
    Частота : 48,0 КГц
    Битовая глубина : 24 бит
    Метод сжатия : С потерями
    Размер потока : 1,56 Гбайт (9%)
    Заголовок : Original
    Язык : English
    Default : Нет
    Forced : Нет

    Текст #1
    Идентификатор : 4
    Формат : UTF-8
    Идентификатор кодека : S_TEXT/UTF8
    Идентификатор кодека/Информация : UTF-8 Plain Text
    Заголовок : full
    Язык : Russian
    Default : Нет
    Forced : Нет

    Текст #2
    Идентификатор : 5
    Формат : UTF-8
    Идентификатор кодека : S_TEXT/UTF8
    Идентификатор кодека/Информация : UTF-8 Plain Text
    Заголовок : full
    Язык : English
    Default : Нет
    Forced : Нет

    Текст #3
    Идентификатор : 6
    Формат : UTF-8
    Идентификатор кодека : S_TEXT/UTF8
    Идентификатор кодека/Информация : UTF-8 Plain Text
    Заголовок : SDH
    Язык : English
    Default : Нет
    Forced : Нет

    Меню
    00:00:00.000 : en:00:00:00.000
    00:09:01.958 : en:00:09:01.958
    00:13:04.993 : en:00:13:04.993
    00:21:03.345 : en:00:21:03.345
    00:27:53.380 : en:00:27:53.380
    00:31:57.290 : en:00:31:57.290
    00:35:08.398 : en:00:35:08.398
    00:42:58.451 : en:00:42:58.451
    00:52:04.621 : en:00:52:04.621
    01:05:39.102 : en:01:05:39.102
    01:16:41.639 : en:01:16:41.639
    01:22:28.777 : en:01:22:28.777
    01:29:29.489 : en:01:29:29.489
    01:34:09.769 : en:01:34:09.769
    01:45:38.582 : en:01:45:38.582
    01:55:54.322 : en:01:55:54.322
    02:02:35.056 : en:02:02:35.056
    02:12:14.176 : en:02:12:14.176
    02:18:29.384 : en:02:18:29.384
9.3 из 10
голосов: 35
/10
/10
Раздачу отредактировал: karta - 31-08-2016, 18:57
По причине: (Замена на рип лучшего качества.)
Baltazar 30-08-2016, 22:54

karta | 31-08-2016, 18:57 | Статус: Оффлайн

Цитата: DmRichie
И чем данный рип лучше предыдущего?


Предыдущий был с плохими настройками кодирования, так называемый сцен-рип.

DmRichie | 31-08-2016, 04:56 | Статус: Оффлайн

И чем данный рип лучше предыдущего?

ArteTT | 29-08-2016, 18:43 | Статус: Оффлайн

Stereo :(

Станислав Егоров | 29-08-2016, 16:54 | Статус: Оффлайн

тунцы, должны быть намедни, тогда качнем вместе с черепахами.

spacelord10 | 29-08-2016, 16:39 | Статус: Оффлайн

как тут с качеством?
Информация
Посетители, находящиеся в группе Гости, не могут оставлять комментарии к данной публикации.