Панель пользователя
Регистрация

Воспользуйтесь социальными сетями для входа на https://freerutor.com

vk odnoklassniki facebook mailru yandex google
Популярное
Счетчик
Голосуй за нас
VIP на сайте
Популярное
Товары интернет магазина
загрузка...

Помнить / Remember (2015) BDRip-AVC | Лицензия

Помнить / Remember (2015) BDRip-AVC | Лицензия
Участники торрент обмена
Сидов Пиров Скачали
0 0 203
Характеристика
Размер Файлы
2.47 GB
Релиз группа
Поделиться раздачей
Фильмы (AVC)
Наименование: Помнить
Оригинальное наименование: Remember
Произведено: Канада, Германия
Категория: Триллер, драма
Режиссер: Атом Эгоян
В ролях: Кристофер Пламмер, Дин Норрис, Мартин Ландау, Бруно Ганц, Юрген Прохнов, Генри Черни, Натали Крилл, Т.Дж. МакГиббон, Джеймс Кейд, Дэниэл Кэш
Краткое описание: 90-летний Зев, переживший Холокост, узнает, что охранник-нацист, виновный в гибели его семьи во время войны, благополучно живет в Америке под чужим именем. Зев отправляется туда вершить правосудие.
  • Видео: MPEG-4 AVC, 3200 Кбит/с, 1024x576
    Аудио: Русский (АС3, 6 ch, 384 Кбит/с), английский (АС3, 6 ch, 448 Кбит/с)
    Продолжительность: 01:34:22
    Перевод: Дублированный [iTunes]
  • Помнить / Remember (2015) BDRip-AVC | Лицензия Помнить / Remember (2015) BDRip-AVC | Лицензия Помнить / Remember (2015) BDRip-AVC | Лицензия
  • Общее
    Уникальный идентификатор : 205239067928955087964636343201764694286 (0x9A679B4E9C4586D6A382C33B985B590E)
    Полное имя : G:Pomnit.2015.x264.BDRip.(AVC).ExKinoRay.mkv
    Формат : Matroska
    Версия формата : Version 2
    Размер файла : 2,69 Гбайт
    Продолжительность : 1 ч. 34 м.
    Общий поток : 4080 Кбит/сек
    Дата кодирования : UTC 2016-05-04 14:29:34
    Программа кодирования : mkvmerge v7.8.0 ('River Man') 32bit built on Apr 3 2015 12:11:22
    Библиотека кодирования : libebml v1.3.1 + libmatroska v1.4.2

    Видео
    Идентификатор : 1
    Формат : AVC
    Формат/Информация : Advanced Video Codec
    Профиль формата : High@L4.1
    Параметр CABAC формата : Да
    Параметр ReFrames формата : 14 кадров
    Идентификатор кодека : V_MPEG4/ISO/AVC
    Продолжительность : 1 ч. 34 м.
    Битрейт : 3200 Кбит/сек
    Ширина : 1024 пикселя
    Высота : 576 пикселей
    Соотношение сторон : 16:9
    Режим частоты кадров : Постоянный
    Частота кадров : 23,976 кадра/сек
    Цветовое пространство : YUV
    Субдискретизация насыщенности : 4:2:0
    Битовая глубина : 8 бит
    Тип развёртки : Прогрессивная
    Бит/(Пиксели*Кадры) : 0.226
    Размер потока : 2,05 Гбайт (76%)
    Библиотека кодирования : x264 core 148 r2638 7599210
    Настройки программы : cabac=1 / ref=14 / deblock=1:-3:-3 / analyse=0x3:0x113 / me=umh / subme=11 / psy=1 / psy_rd=1.10:0.10 / mixed_ref=1 / me_range=32 / chroma_me=1 / trellis=2 / 8x8dct=1 / cqm=0 / deadzone=21,11 / fast_pskip=0 / chroma_qp_offset=-3 / threads=6 / lookahead_threads=1 / sliced_threads=0 / nr=0 / decimate=0 / interlaced=0 / bluray_compat=0 / constrained_intra=0 / bframes=16 / b_pyramid=2 / b_adapt=2 / b_bias=0 / direct=3 / weightb=1 / open_gop=0 / weightp=2 / keyint=240 / keyint_min=23 / scenecut=40 / intra_refresh=0 / rc_lookahead=40 / rc=2pass / mbtree=0 / bitrate=3200 / ratetol=1.0 / qcomp=0.63 / qpmin=0 / qpmax=39 / qpstep=4 / cplxblur=20.0 / qblur=0.5 / vbv_maxrate=50000 / vbv_bufsize=62500 / nal_hrd=none / filler=0 / ip_ratio=1.15 / pb_ratio=1.30 / aq=3:1.00
    Язык : English
    Default : Да
    Forced : Нет
    Основные цвета : BT.709
    Характеристики трансфера : BT.709
    Коэффициенты матрицы : BT.709
    colour_range : Limited

    Аудио #1
    Идентификатор : 2
    Формат : AC-3
    Формат/Информация : Audio Coding 3
    Расширение режима : CM (complete main)
    Параметр Endianness формата : Big
    Идентификатор кодека : A_AC3
    Продолжительность : 1 ч. 34 м.
    Вид битрейта : Постоянный
    Битрейт : 384 Кбит/сек
    Каналы : 6 каналов
    Расположение каналов : Front: L C R, Side: L R, LFE
    Частота : 48,0 КГц
    Битовая глубина : 16 бит
    Метод сжатия : С потерями
    Размер потока : 259 Мбайт (10%)
    Язык : Russian
    Default : Да
    Forced : Да

    Аудио #2
    Идентификатор : 3
    Формат : AC-3
    Формат/Информация : Audio Coding 3
    Расширение режима : CM (complete main)
    Параметр Endianness формата : Big
    Идентификатор кодека : A_AC3
    Продолжительность : 1 ч. 34 м.
    Вид битрейта : Постоянный
    Битрейт : 448 Кбит/сек
    Каналы : 6 каналов
    Расположение каналов : Front: L C R, Side: L R, LFE
    Частота : 48,0 КГц
    Битовая глубина : 16 бит
    Метод сжатия : С потерями
    Размер потока : 302 Мбайт (11%)
    Язык : English
    Default : Нет
    Forced : Да

    Меню
    00:00:00.000 : en:00:00:00.000
    00:05:37.921 : en:00:05:37.921
    00:12:25.161 : en:00:12:25.161
    00:16:32.742 : en:00:16:32.742
    00:25:00.541 : en:00:25:00.541
    00:30:11.768 : en:00:30:11.768
    00:36:11.544 : en:00:36:11.544
    00:41:55.638 : en:00:41:55.638
    00:46:31.706 : en:00:46:31.706
    00:52:22.014 : en:00:52:22.014
    00:57:59.726 : en:00:57:59.726
    01:03:39.149 : en:01:03:39.149
    01:10:19.966 : en:01:10:19.966
    01:16:33.839 : en:01:16:33.839
    01:21:17.831 : en:01:21:17.831
    01:28:20.212 : en:01:28:20.212
9.8 из 10
голосов: 8
/10
/10
DGEYK 7-05-2016, 17:33
Информация
Посетители, находящиеся в группе Гости, не могут оставлять комментарии к данной публикации.