Панель пользователя
Регистрация

Воспользуйтесь социальными сетями для входа на https://freerutor.com

vk odnoklassniki facebook mailru yandex google
Популярное
Счетчик
Голосуй за нас
VIP на сайте
Популярное
Товары интернет магазина
загрузка...

Эдди «Орел» (2016) BDRip 720p | Лицензия

Эдди «Орел» (2016)  BDRip 720p | Лицензия
Участники торрент обмена
Сидов Пиров Скачали
2 0 75
Характеристика
Размер Файлы
5.82 GB
Поделиться раздачей
Фильмы (720,1080,Blu-Ray)
Наименование: Эдди «Орел»
Оригинальное наименование: Eddie the Eagle
Произведено: Великобритания, США, Германия
Категория: драма, комедия, биография, спорт
Режиссер постановщик: Декстер Флетчер
В главных ролях: Тэрон Эджертон, Хью Джекман, Кристофер Уокен, Джо Хартли, Том Костелло, Кит Аллен, Дикон Толсон, Джек Костелло, Марк Бентон, Тим МакИннерни
Краткое описание: Фильм повествует о трамплинисте Эдди, по прозвищу «Орел». Он прославился благодаря своим неудачам, ибо на всех соревнованиях он занимал последние места.
  • Видео данные: MPEG-4 AVC, 5147 kb/s, 1280x536
    Аудио данные: Русский (AC3, 6 ch, 640 Кбит/с), украинский (AC3, 6 ch, 448 Кбит/с), английский (DTS, 6 ch, 1536 Кбит/с)
    Перевод: Дублированный [Лицензия]
    Субтитры: Русские, английские, румынские
    Продолжительность: 01:45:43
  • Эдди «Орел» (2016)  BDRip 720p | Лицензия Эдди «Орел» (2016)  BDRip 720p | Лицензия Эдди «Орел» (2016)  BDRip 720p | Лицензия
  • x264 [info]: frame I:1355 Avg QP: 9.78 size:197062
    x264 [info]: frame P:38059 Avg QP:12.00 size: 76207
    x264 [info]: frame B:112676 Avg QP:13.71 size: 24569
    x264 [info]: consecutive B-frames: 3.6% 4.8% 7.7% 36.6% 15.7% 21.8% 9.7%
    =======================================================================

    Общее
    Уникальный идентификатор : 170376979773109212939041582833021629141 (0x802D69A7E1D748EDB7D56F69F44E32D5)
    Полное имя : D:загрузкиEddie.the.Eagle.2016.D.BluRay.720p.mkv
    Формат : Matroska
    Версия формата : Version 4 / Version 2
    Размер файла : 6,93 Гбайт
    Продолжительность : 1 ч. 45 м.
    Общий поток : 9381 Кбит/сек
    Дата кодирования : UTC 2016-06-09 15:17:03
    Программа кодирования : mkvmerge v8.3.0 ('Over the Horizon') 64bit
    Библиотека кодирования : libebml v1.3.1 + libmatroska v1.4.2

    Видео
    Идентификатор : 1
    Формат : AVC
    Формат/Информация : Advanced Video Codec
    Профиль формата : High@L4.1
    Параметр CABAC формата : Да
    Параметр ReFrames формата : 12 кадров
    Идентификатор кодека : V_MPEG4/ISO/AVC
    Продолжительность : 1 ч. 45 м.
    Битрейт : 7500 Кбит/сек
    Ширина : 1280 пикселей
    Высота : 536 пикселей
    Соотношение сторон : 2,40:1
    Режим частоты кадров : Постоянный
    Частота кадров : 23,976 кадра/сек
    Цветовое пространство : YUV
    Субдискретизация насыщенности : 4:2:0
    Битовая глубина : 8 бит
    Тип развёртки : Прогрессивная
    Бит/(Пиксели*Кадры) : 0.456
    Размер потока : 5,39 Гбайт (78%)
    Библиотека кодирования : x264 core 142 r2431+42 c69a006 tMod [8-bit@all X86]
    Настройки программы : cabac=1 / ref=12 / deblock=1:0:0 / analyse=0x3:0x113 / me=umh / subme=10 / psy=1 / fade_compensate=0.00 / psy_rd=1.05:0.10 / mixed_ref=1 / me_range=32 / chroma_me=1 / trellis=2 / 8x8dct=1 / cqm=0 / deadzone=21,11 / fast_pskip=0 / chroma_qp_offset=-2 / threads=12 / lookahead_threads=1 / sliced_threads=0 / nr=0 / decimate=1 / interlaced=0 / bluray_compat=0 / constrained_intra=0 / fgo=0 / bframes=6 / b_pyramid=2 / b_adapt=2 / b_bias=0 / direct=3 / weightb=1 / open_gop=0 / weightp=2 / keyint=250 / keyint_min=23 / scenecut=40 / intra_refresh=0 / rc=2pass / mbtree=0 / bitrate=7500 / ratetol=1.0 / qcomp=0.70 / qpmin=0:0:0 / qpmax=69:69:69 / qpstep=4 / cplxblur=20.0 / qblur=0.5 / ip_ratio=1.40 / pb_ratio=1.30 / aq=2:1.00 / aq-sensitivity=10.00 / aq-factor=1.00:1.00:1.00 / aq2=0 / aq3=0
    Default : Да
    Forced : Нет

    Аудио #1
    Идентификатор : 2
    Формат : AC-3
    Формат/Информация : Audio Coding 3
    Расширение режима : CM (complete main)
    Параметр Endianness формата : Big
    Идентификатор кодека : A_AC3
    Продолжительность : 1 ч. 45 м.
    Вид битрейта : Постоянный
    Битрейт : 384 Кбит/сек
    Каналы : 6 каналов
    Расположение каналов : Front: L C R, Side: L R, LFE
    Частота : 48,0 КГц
    Битовая глубина : 16 бит
    Метод сжатия : С потерями
    Размер потока : 290 Мбайт (4%)
    Заголовок : iTunes
    Язык : Russian
    Default : Да
    Forced : Нет

    Аудио #2
    Идентификатор : 3
    Формат : DTS
    Формат/Информация : Digital Theater Systems
    Режим : 16
    Параметр Endianness формата : Big
    Идентификатор кодека : A_DTS
    Продолжительность : 1 ч. 45 м.
    Вид битрейта : Постоянный
    Битрейт : 1509 Кбит/сек
    Каналы : 6 каналов
    Расположение каналов : Front: L C R, Side: L R, LFE
    Частота : 48,0 КГц
    Битовая глубина : 24 бит
    Метод сжатия : С потерями
    Размер потока : 1,11 Гбайт (16%)
    Заголовок : Оригинал
    Язык : English
    Default : Нет
    Forced : Нет

    Текст #1
    Идентификатор : 4
    Формат : UTF-8
    Идентификатор кодека : S_TEXT/UTF8
    Идентификатор кодека/Информация : UTF-8 Plain Text
    Заголовок : Forced
    Язык : Russian
    Default : Да
    Forced : Нет

    Текст #2
    Идентификатор : 5
    Формат : UTF-8
    Идентификатор кодека : S_TEXT/UTF8
    Идентификатор кодека/Информация : UTF-8 Plain Text
    Заголовок : Full
    Язык : Russian
    Default : Нет
    Forced : Нет

    Текст #3
    Идентификатор : 6
    Формат : UTF-8
    Идентификатор кодека : S_TEXT/UTF8
    Идентификатор кодека/Информация : UTF-8 Plain Text
    Заголовок : Forced
    Язык : English
    Default : Нет
    Forced : Нет

    Текст #4
    Идентификатор : 7
    Формат : UTF-8
    Идентификатор кодека : S_TEXT/UTF8
    Идентификатор кодека/Информация : UTF-8 Plain Text
    Заголовок : Full
    Язык : English
    Default : Нет
    Forced : Нет

    Меню
    00:00:00.000 : en:00:00:00.000
    00:03:33.171 : en:00:03:33.171
    00:08:15.161 : en:00:08:15.161
    00:12:06.684 : en:00:12:06.684
    00:17:54.573 : en:00:17:54.573
    00:21:31.081 : en:00:21:31.081
    00:26:19.578 : en:00:26:19.578
    00:31:41.566 : en:00:31:41.566
    00:37:13.273 : en:00:37:13.273
    00:41:46.963 : en:00:41:46.963
    00:47:12.329 : en:00:47:12.329
    00:50:19.350 : en:00:50:19.350
    00:53:39.591 : en:00:53:39.591
    00:56:57.581 : en:00:56:57.581
    01:02:22.906 : en:01:02:22.906
    01:08:16.884 : en:01:08:16.884
    01:11:42.298 : en:01:11:42.298
    01:17:05.788 : en:01:17:05.788
    01:20:00.587 : en:01:20:00.587
    01:23:23.457 : en:01:23:23.457
    01:27:44.593 : en:01:27:44.593
    01:31:40.120 : en:01:31:40.120
    01:36:53.057 : en:01:36:53.057
    01:40:42.078 : en:01:40:42.078
8.2 из 10
голосов: 5
/10
/10
karta 9-06-2016, 18:54
Информация
Посетители, находящиеся в группе Гости, не могут оставлять комментарии к данной публикации.