Панель пользователя
Регистрация

Воспользуйтесь социальными сетями для входа на https://freerutor.com

vk odnoklassniki facebook mailru yandex google
Популярное
Счетчик
Голосуй за нас
VIP на сайте
Популярное
Товары интернет магазина
загрузка...

Винил (1 сезон 1-7 серии из 10) (2016) HDTVRip 1080p | Кубик в Кубе

Винил  (1 сезон 1-7 серии из 10) (2016) HDTVRip 1080p | Кубик в Кубе
Участники торрент обмена
Сидов Пиров Скачали
0 0 7
Характеристика
Размер Файлы
41.48 GB
Поделиться раздачей
Заруб. сериалы (720P,1080P)
Наименование: Винил
Оригинальное наименование: Vinyl
Категория: драма, музыка
Произведено: США / Home Box Office (HBO), Jagged Films
Режиссер постановщик: Аллен Коултер, Николь Кэссел, Марк Романек, Питер Соллеттр
В главных ролях: Бобби Каннавейл, Оливия Уайлд, Рэй Романо, Ато Эссонда, Макс Казелла, П.Дж. Бирн, Дж.С. МакКензи, Биргитта Йорт Сёренсен, Джуно Темпл, Джек Куэйд
Краткое описание: Самая громкая премьера 2016 года от мэтра кино Мартина Скорсезе, кумира миллионов Мика Джаггера и сценариста «Подпольной империи» и «Сопрано» Терренса Уинтера. Сериал переносит зрителя в Нью-Йорк 1970-х годов, без прикрас изображая заряженный сексом и наркотиками музыкальный бизнес на заре панка, диско и хип-хопа. Время, по которому невозможно не ностальгировать даже тем, кто родился намного позже. По сюжету главный герой Ричи Финестра в исполнении Бобби Каннавале («Подпольная империя», «Жасмин») рвет и мечет, чтобы придумать новое направление и возродить свой звукозаписывающий лейбл, при этом преодолевая личностный кризис и неурядицы семейной жизни. Роль богемной жены с характером исполнила обворожительная Оливия Уайлд («Доктор Хаус», «Она», «Трон: Наследие»), а бизнес-партнером стал Рэй Романо («Родители», «Все любят Реймонда»). От ABBA до LedZeppelin, от Дэвида Боуи до Джеймса Брауна – сумасшедший коктейль 70-х в новой драме HBO..
  • Видео данные: MKV,12 Мбит/сек,1920x1080
    Аудио данные: Русский, английский (AC3, 6 ch, 384 Кбит/с)
    Перевод: Профессиональный многоголосый [Кубик в Кубе]
    Продолжительность: 1 х ~ 01:00:00
  • Винил  (1 сезон 1-7 серии из 10) (2016) HDTVRip 1080p | Кубик в Кубе Винил  (1 сезон 1-7 серии из 10) (2016) HDTVRip 1080p | Кубик в Кубе Винил  (1 сезон 1-7 серии из 10) (2016) HDTVRip 1080p | Кубик в Кубе
  • Сезон 1 (Озвучка Кубик в Кубе )
  • Формат : Matroska
    Версия формата : Version 4 / Version 2
    Размер файла : 5,02 Гбайт
    Продолжительность : 55 м.
    Режим общего битрейта : Переменный
    Общий поток : 13,0 Мбит/сек
    Название фильма : Vinyl 01x04 (The Racket) - release by messfan for CasStudio.TV
    Дата кодирования : UTC 2016-04-08 09:45:41
    Программа кодирования : mkvmerge v6.7.0 ('Back to the Ground') 64bit built on Jan 8 2014 15:10:52
    Библиотека кодирования : libebml v1.3.0 + libmatroska v1.4.1

    Видео
    Идентификатор : 1
    Формат : MPEG Video
    Версия формата : Version 2
    Профиль формата : Main@High
    Параметр BVOP формата : Да
    Параметр матрицы формата : По умолчанию
    Параметр GOP формата : M=3, N=13
    Идентификатор кодека : V_MPEG2
    Идентификатор кодека/Информация : MPEG 1 or 2 Video
    Продолжительность : 55 м.
    Вид битрейта : Переменный
    Битрейт : 12,0 Мбит/сек
    Максимальный битрейт : 64,0 Мбит/сек
    Ширина : 1920 пикселей
    Высота : 1080 пикселей
    Соотношение сторон : 16:9
    Режим частоты кадров : Постоянный
    Частота кадров : 29,970 (30000/1001) кадров/сек
    Цветовое пространство : YUV
    Субдискретизация насыщенности : 4:2:0
    Битовая глубина : 8 бит
    Метод сжатия : С потерями
    Бит/(Пиксели*Кадры) : 0.193
    Временной код первого кадра : 00:00:00;00
    Оригинал временного кода : Group of pictures header
    Размер потока : 4,62 Гбайт (92%)
    Заголовок : Vinyl S01E04 1080i HDTV MPEG2 DD5.1-CtrlHD
    Язык : English
    Default : Да
    Forced : Нет

    Аудио #1
    Идентификатор : 2
    Формат : AC-3
    Формат/Информация : Audio Coding 3
    Расширение режима : CM (complete main)
    Параметр Endianness формата : Big
    Идентификатор кодека : A_AC3
    Продолжительность : 55 м.
    Вид битрейта : Постоянный
    Битрейт : 384 Кбит/сек
    Каналы : 6 каналов
    Расположение каналов : Front: L C R, Side: L R, LFE
    Частота : 48,0 КГц
    Частота кадров : 31,250 кадров/сек (1536 spf)
    Метод сжатия : С потерями
    Размер потока : 151 Мбайт (3%)
    Заголовок : KvK 5.1
    Язык : Russian
    Default : Да
    Forced : Нет

    Аудио #2
    Идентификатор : 3
    Формат : AC-3
    Формат/Информация : Audio Coding 3
    Расширение режима : CM (complete main)
    Параметр Endianness формата : Big
    Идентификатор кодека : A_AC3
    Продолжительность : 55 м.
    Вид битрейта : Постоянный
    Битрейт : 384 Кбит/сек
    Каналы : 2 канала
    Расположение каналов : Front: L R
    Частота : 48,0 КГц
    Частота кадров : 31,250 кадров/сек (1536 spf)
    Метод сжатия : С потерями
    Размер потока : 151 Мбайт (3%)
    Заголовок : English 5.1
    Язык : English
    Default : Нет
    Forced : Нет
10.0 из 10
голосов: 4
/10
/10
MeZZAPT 25-04-2016, 19:06

MeZZAPT | 25-04-2016, 19:21 | Статус: Оффлайн

Ссылка на скачивание: http://freerutor.com/engine/download.php?id=179341
Информация
Посетители, находящиеся в группе Гости, не могут оставлять комментарии к данной публикации.