Панель пользователя
Регистрация

Воспользуйтесь социальными сетями для входа на https://freerutor.com

vk odnoklassniki facebook mailru yandex google
Популярное
Счетчик
Голосуй за нас
VIP на сайте
Популярное
Товары интернет магазина
загрузка...

Смешарики. Легенда о золотом драконе (2016) НDRip | Лицензия

Смешарики. Легенда о золотом драконе (2016) НDRip | Лицензия
Участники торрент обмена
Сидов Пиров Скачали
8 0 9344
Характеристика
Размер Файлы
1.37 GB
Поделиться раздачей
Мультфильмы
Наименование: Смешарики. Легенда о золотом драконе
Произведено: Россия
Категория: мультфильм, приключения, комедия
Режиссер постановщик: Денис Чернов
В главных ролях: Михаил Черняк, Сергей Мардарь, Антон Виноградов, Владимир Постников, Светлана Письмиченко, Вадим Бочанов, Гарик Харламов, Дмитрий Нагиев, Елена Шульман, Владимир Маслаков
Краткое описание: Выдающийся учёный и его команда отправляются в самое сердце диких джунглей, где их ждут опасные приключения, свирепые туземцы и расхитители гробниц, до зубов вооруженные гаджетами.
  • Видео данные: XviD, 1981 Кбит/с, 720x304
    Аудио данные: AC3, 6 ch, 448 Кбит/с
    Перевод: Оригинал [Лицензия]
    Продолжительность: 01:20:15
  • Смешарики. Легенда о золотом драконе (2016) НDRip | Лицензия Смешарики. Легенда о золотом драконе (2016) НDRip | Лицензия Смешарики. Легенда о золотом драконе (2016) НDRip | Лицензия
  • General
    Format : AVI
    Format/Info : Audio Video Interleave
    Overall bit rate : 2 221 Kbps
    Movie name : Smeshariki.2O16.O.HDRip.1400MB
    Writing application : VirtualDubMod 1.5.10.3 | (build 2550/release)
    Writing library : VirtualDubMod build 2550/release
    Copyright : MoreFilms

    Video
    ID : 0
    Format : MPEG-4 Visual
    Format profile : Advanced Simple@L5
    Format settings, BVOP : 2
    Format settings, QPel : No
    Format settings, GMC : No warppoints
    Format settings, Matrix : Custom
    Codec ID : XVID
    Codec ID/Hint : XviD
    Bit rate : 1 981 Kbps
    Width : 720 pixels
    Height : 304 pixels
    Display aspect ratio : 2.35:1
    Frame rate : 23.976 fps
    Color space : YUV
    Chroma subsampling : 4:2:0
    Bit depth : 8 bits
    Scan type : Progressive
    Compression mode : Lossy
    Bits/(Pixel*Frame) : 0.200
    Stream size : 6.95 MiB (70%)
    Writing library : XviD 1.2.1 (UTC 2008-12-04)

    Audio
    ID : 1
    Format : AC-3
    Format/Info : Audio Coding 3
    Mode extension : CM (complete main)
    Format settings, Endianness : Big
    Codec ID : 2000
    Bit rate mode : Constant
    Bit rate : 448 Kbps
    Channel(s) : 6 channels
    Channel positions : Front: L C R, Side: L R, LFE
    Sampling rate : 48.0 KHz
    Compression mode : Lossy
    Stream size : 2.96 MiB (30%)
    Alignment : Split accross interleaves
    Interleave, preload duration : 500 ms
7.9 из 10
голосов: 7
/10
/10
Раздачу отредактировал: grab777 - 25-05-2016, 19:49
По причине: (Замена WEB-DLRip на BDRip)
foster720p 25-05-2016, 19:49
Информация
Посетители, находящиеся в группе Гости, не могут оставлять комментарии к данной публикации.