Панель пользователя
Регистрация

Воспользуйтесь социальными сетями для входа на https://freerutor.com

vk odnoklassniki facebook mailru yandex google
Популярное
Счетчик
Голосуй за нас
VIP на сайте
Популярное
Товары интернет магазина
загрузка...

Миссия в Майами / Ride Along 2 (2016) BDRip 1080p | Лицензия

Миссия в Майами / Ride Along 2 (2016) BDRip 1080p | Лицензия
Участники торрент обмена
Сидов Пиров Скачали
2 0 751
Характеристика
Размер Файлы
10.29 GB
Поделиться раздачей
Фильмы (720,1080,Blu-Ray)
Наименование: Миссия в Майами
Оригинальное наименование: Ride Along 2
Произведено: США
Категория: боевик, комедия
Режиссер постановщик: Тим Стори
В главных ролях: Айс Кьюб, Кевин Харт, Тика Самптер, Бенджамин Брэтт, Оливия Манн, Кен Жонг, Брюс МакГилл, Майкл Эдвард Роуз, Шерри Шеперд, Артуро дель Пуэрто
Краткое описание: Накануне собственной свадьбы Бен отправляется с братом своей будущей жены, крутым полицейским Джеймсом, в Майами, чтобы схватить наркодельца.
  • Видео данные: MPEG-4 AVC, 12.5 Мбит/с, 1920x800
    Аудио данные: Русский (AC3, 6 ch, 448 Кбит/с), английский (DTS, 6 ch, 1509 Кбит/с)
    Перевод: Дублированный [Лицензия]
    Субтитры: Русские (forced, full), английские (full, SDH)
    Продолжительность: 01:41:30
  • Миссия в Майами / Ride Along 2 (2016) BDRip 1080p | Лицензия Миссия в Майами / Ride Along 2 (2016) BDRip 1080p | Лицензия
  • Общее
    Уникальный идентификатор : 196804031441272412371798542750828855412 (0x940F13E64D7108339F8897A1008A0074)
    Полное имя : D:загрузкиMissiya.v.Mayami.2016.D.BDRip.1080p.mkv
    Формат : Matroska
    Версия формата : Version 4 / Version 2
    Размер файла : 10,3 Гбайт
    Продолжительность : 1 ч. 41 м.
    Общий поток : 14,5 Мбит/сек
    Дата кодирования : UTC 2016-08-20 18:05:49
    Программа кодирования : mkvmerge v8.3.0 ('Over the Horizon') 64bit
    Библиотека кодирования : libebml v1.3.1 + libmatroska v1.4.2

    Видео
    Идентификатор : 1
    Формат : AVC
    Формат/Информация : Advanced Video Codec
    Профиль формата : High@L4.1
    Параметр CABAC формата : Да
    Параметр ReFrames формата : 5 кадров
    Идентификатор кодека : V_MPEG4/ISO/AVC
    Продолжительность : 1 ч. 41 м.
    Битрейт : 12,3 Мбит/сек
    Ширина : 1920 пикселей
    Высота : 800 пикселей
    Соотношение сторон : 2,40:1
    Режим частоты кадров : Постоянный
    Частота кадров : 23,976 кадра/сек
    Цветовое пространство : YUV
    Субдискретизация насыщенности : 4:2:0
    Битовая глубина : 8 бит
    Тип развёртки : Прогрессивная
    Бит/(Пиксели*Кадры) : 0.333
    Размер потока : 8,69 Гбайт (85%)
    Библиотека кодирования : x264 core 148 r2665+53 6629127 t_mod_Custom [8-bit@all X86_64]
    Настройки программы : cabac=1 / ref=5 / deblock=1:-3:-3 / analyse=0x3:0x133 / me=umh / subme=11 / psy=1 / fade_compensate=0.00 / psy_rd=1.00:0.00 / mixed_ref=1 / me_range=32 / chroma_me=1 / trellis=2 / 8x8dct=1 / cqm=0 / deadzone=21,11 / fast_pskip=0 / chroma_qp_offset=-2 / threads=16 / lookahead_threads=2 / sliced_threads=0 / nr=0 / decimate=0 / interlaced=0 / bluray_compat=0 / constrained_intra=0 / fgo=0 / bframes=8 / b_pyramid=2 / b_adapt=2 / b_bias=0 / direct=3 / weightb=1 / open_gop=0 / weightp=2 / keyint=250 / keyint_min=23 / scenecut=40 / intra_refresh=0 / rc_lookahead=150 / rc=crf / mbtree=0 / crf=16.2000 / qcomp=0.65 / qpmin=0:0:0 / qpmax=69:69:69 / qpstep=4 / vbv_maxrate=50000 / vbv_bufsize=62500 / crf_max=0.0 / nal_hrd=none / filler=0 / ip_ratio=1.30 / pb_ratio=1.20 / aq=3:0.65 / aq-sensitivity=10.00 / aq-factor=1.00:1.00:1.00 / aq2=0 / aq3=0
    Язык : English
    Default : Да
    Forced : Нет
    Коэффициенты матрицы : BT.709

    Аудио #1
    Идентификатор : 2
    Формат : AC-3
    Формат/Информация : Audio Coding 3
    Расширение режима : CM (complete main)
    Параметр Endianness формата : Big
    Идентификатор кодека : A_AC3
    Продолжительность : 1 ч. 41 м.
    Вид битрейта : Постоянный
    Битрейт : 448 Кбит/сек
    Каналы : 6 каналов
    Расположение каналов : Front: L C R, Side: L R, LFE
    Частота : 48,0 КГц
    Битовая глубина : 16 бит
    Метод сжатия : С потерями
    Размер потока : 325 Мбайт (3%)
    Заголовок : BD CEE
    Язык : Russian
    Default : Да
    Forced : Нет

    Аудио #2
    Идентификатор : 3
    Формат : DTS
    Формат/Информация : Digital Theater Systems
    Режим : 16
    Параметр Endianness формата : Big
    Идентификатор кодека : A_DTS
    Продолжительность : 1 ч. 41 м.
    Вид битрейта : Постоянный
    Битрейт : 1509 Кбит/сек
    Каналы : 6 каналов
    Расположение каналов : Front: L C R, Side: L R, LFE
    Частота : 48,0 КГц
    Битовая глубина : 24 бит
    Метод сжатия : С потерями
    Размер потока : 1,07 Гбайт (10%)
    Заголовок : Original
    Язык : English
    Default : Нет
    Forced : Нет

    Текст #1
    Идентификатор : 4
    Формат : UTF-8
    Идентификатор кодека : S_TEXT/UTF8
    Идентификатор кодека/Информация : UTF-8 Plain Text
    Заголовок : forced
    Язык : Russian
    Default : Да
    Forced : Нет

    Текст #2
    Идентификатор : 5
    Формат : UTF-8
    Идентификатор кодека : S_TEXT/UTF8
    Идентификатор кодека/Информация : UTF-8 Plain Text
    Заголовок : full
    Язык : Russian
    Default : Нет
    Forced : Нет

    Текст #3
    Идентификатор : 6
    Формат : UTF-8
    Идентификатор кодека : S_TEXT/UTF8
    Идентификатор кодека/Информация : UTF-8 Plain Text
    Заголовок : full
    Язык : English
    Default : Нет
    Forced : Нет

    Текст #4
    Идентификатор : 7
    Формат : UTF-8
    Идентификатор кодека : S_TEXT/UTF8
    Идентификатор кодека/Информация : UTF-8 Plain Text
    Заголовок : SDH
    Язык : English
    Default : Нет
    Forced : Нет

    Меню
    00:00:00.000 : en:Chapter 01
    00:03:29.584 : en:Chapter 02
    00:10:26.751 : en:Chapter 03
    00:14:00.089 : en:Chapter 04
    00:17:21.040 : en:Chapter 05
    00:22:33.269 : en:Chapter 06
    00:27:48.876 : en:Chapter 07
    00:34:33.530 : en:Chapter 08
    00:39:25.905 : en:Chapter 09
    00:42:26.002 : en:Chapter 10
    00:46:06.013 : en:Chapter 11
    00:50:51.173 : en:Chapter 12
    00:56:40.689 : en:Chapter 13
    01:00:04.726 : en:Chapter 14
    01:06:57.680 : en:Chapter 15
    01:13:09.051 : en:Chapter 16
    01:19:35.396 : en:Chapter 17
    01:23:06.732 : en:Chapter 18
    01:31:19.766 : en:Chapter 19
    01:36:58.938 : en:Chapter 20
7.0 из 10
голосов: 7
/10
/10
darkmagikan 20-08-2016, 21:19

msobotka | 21-08-2016, 17:58 | Статус: Онлайн

Да и продолжение никакое. "Плохие парни", но бюджетный вариант, да и актеры попроще. трюки подешевле, а ужимки и прыжки те же. Фильма для ниггеров, очевидно, они это жрут. И что интересного может быть в этой фильме для российского зрителя? Вы не имели дело с черными? Нет? Тогда, можете смотреть, развлекайтесь...
Информация
Посетители, находящиеся в группе Гости, не могут оставлять комментарии к данной публикации.