Панель пользователя
Регистрация

Воспользуйтесь социальными сетями для входа на https://freerutor.com

vk odnoklassniki facebook mailru yandex google
Популярное
Счетчик
Голосуй за нас
VIP на сайте
Популярное
Товары интернет магазина
загрузка...

Заброшенный / Forsaken (2015) BDRip-AVC

Заброшенный / Forsaken (2015) BDRip-AVC
Участники торрент обмена
Сидов Пиров Скачали
2 0 720
Характеристика
Размер Файлы
2.17 GB
Релиз группа
Поделиться раздачей
Фильмы (720,1080,Blu-Ray)
Наименование: Заброшенный
Оригинальное наименование: Forsaken
Категория: Драма, вестерн
Произведено: Канада, Франция / Minds Eye Entertainment, Panacea Entertainment, Moving Pictures Media
Режиссер постановщик: Джон Кассар
В главных ролях: Деми Мур, Кифер Сазерленд, Дональд Сазерленд, Брайан Кокс, Майкл Уинкотт, Лэндон Либуарон, Уэсли Морган
Краткое описание: Наёмный убийца Джон Генри оставляет своё кровавое ремесло и возвращается в родной город, надеясь восстановить отношения с собственным отцом.
  • Видео данные: MPEG-4 AVC, 2573 Кбит/с, 1024x428
    Аудио данные: Русский, английский (AC3, 6 ch, 448 Кбит/с)
    Перевод: Профессиональный многоголосый [Focus Studio]
    Субтитры: Русский, английский
    Продолжительность: 01:30:49
  • Заброшенный / Forsaken (2015) BDRip-AVC Заброшенный / Forsaken (2015) BDRip-AVC Заброшенный / Forsaken (2015) BDRip-AVC
  • Формат : Matroska
    Версия формата : Version 2
    Размер файла : 2,17 Гбайт
    Продолжительность : 1 ч. 29 м.
    Общий поток : 3468 Кбит/сек
    Дата кодирования : UTC 2016-03-31 04:27:22
    Программа кодирования : mkvmerge v5.3.0 ('I could have danced') built on Feb 9 2012 10:38:07
    Библиотека кодирования : libebml v1.2.3 + libmatroska v1.3.0
    Attachment : Yes

    Видео
    Идентификатор : 1
    Формат : AVC
    Формат/Информация : Advanced Video Codec
    Профиль формата : High@L4.1
    Параметр CABAC формата : Да
    Параметр ReFrames формата : 12 кадров
    Идентификатор кодека : V_MPEG4/ISO/AVC
    Продолжительность : 1 ч. 29 м.
    Битрейт : 2573 Кбит/сек
    Ширина : 1024 пикселя
    Высота : 428 пикселей
    Соотношение сторон : 2,40:1
    Режим частоты кадров : Постоянный
    Частота кадров : 23,976 кадра/сек
    Цветовое пространство : YUV
    Субдискретизация насыщенности : 4:2:0
    Битовая глубина : 8 бит
    Тип развёртки : Прогрессивная
    Бит/(Пиксели*Кадры) : 0.245
    Размер потока : 1,57 Гбайт (72%)
    Библиотека кодирования : x264 core 146 r2538 121396c
    Настройки программы : cabac=1 / ref=12 / deblock=1:-3:-3 / analyse=0x3:0x133 / me=umh / subme=11 / psy=1 / psy_rd=1.00:0.10 / mixed_ref=1 / me_range=32 / chroma_me=1 / trellis=2 / 8x8dct=1 / cqm=0 / deadzone=21,11 / fast_pskip=0 / chroma_qp_offset=-3 / threads=12 / lookahead_threads=2 / sliced_threads=0 / nr=0 / decimate=0 / interlaced=0 / bluray_compat=0 / constrained_intra=0 / bframes=8 / b_pyramid=2 / b_adapt=2 / b_bias=0 / direct=3 / weightb=1 / open_gop=0 / weightp=2 / keyint=240 / keyint_min=23 / scenecut=40 / intra_refresh=0 / rc=2pass / mbtree=0 / bitrate=2573 / ratetol=1.0 / qcomp=0.60 / qpmin=0 / qpmax=69 / qpstep=4 / cplxblur=20.0 / qblur=0.5 / ip_ratio=1.40 / pb_ratio=1.30 / aq=1:0.80
    Язык : English
    Default : Да
    Forced : Нет

    Аудио #1
    Идентификатор : 2
    Формат : AC-3
    Формат/Информация : Audio Coding 3
    Расширение режима : CM (complete main)
    Параметр Endianness формата : Big
    Идентификатор кодека : A_AC3
    Продолжительность : 1 ч. 29 м.
    Вид битрейта : Постоянный
    Битрейт : 448 Кбит/сек
    Каналы : 6 каналов
    Расположение каналов : Front: L C R, Side: L R, LFE
    Частота : 48,0 КГц
    Битовая глубина : 16 бит
    Метод сжатия : С потерями
    Размер потока : 287 Мбайт (13%)
    Язык : Russian
    Default : Да
    Forced : Да

    Аудио #2
    Идентификатор : 3
    Формат : AC-3
    Формат/Информация : Audio Coding 3
    Расширение режима : CM (complete main)
    Параметр Endianness формата : Big
    Идентификатор кодека : A_AC3
    Продолжительность : 1 ч. 29 м.
    Вид битрейта : Постоянный
    Битрейт : 448 Кбит/сек
    Каналы : 6 каналов
    Расположение каналов : Front: L C R, Side: L R, LFE
    Частота : 48,0 КГц
    Битовая глубина : 16 бит
    Метод сжатия : С потерями
    Размер потока : 287 Мбайт (13%)
    Язык : English
    Default : Нет
    Forced : Нет

    Текст #1
    Идентификатор : 4
    Формат : UTF-8
    Идентификатор кодека : S_TEXT/UTF8
    Идентификатор кодека/Информация : UTF-8 Plain Text
    Язык : Russian
    Default : Нет
    Forced : Нет

    Текст #2
    Идентификатор : 5
    Формат : UTF-8
    Идентификатор кодека : S_TEXT/UTF8
    Идентификатор кодека/Информация : UTF-8 Plain Text
    Язык : English
    Default : Нет
    Forced : Нет

    Меню
    00:00:00.000 : :Chapter 01
    00:04:01.199 : :Chapter 02
    00:10:27.043 : :Chapter 03
    00:17:04.981 : :Chapter 04
    00:22:49.076 : :Chapter 05
    00:27:14.590 : :Chapter 06
    00:33:08.861 : :Chapter 07
    00:38:31.559 : :Chapter 08
    00:43:52.002 : :Chapter 09
    00:50:08.880 : :Chapter 10
    00:55:19.064 : :Chapter 11
    01:00:12.650 : :Chapter 12
    01:06:26.231 : :Chapter 13
    01:12:33.265 : :Chapter 14
    01:19:02.319 : :Chapter 15
    01:25:28.122 : :Chapter 16
    01:29:36.287 : :Chapter 17
5.0 из 10
голосов: 1
/10
/10
grab777 6-04-2016, 20:22

Stalin | 6-04-2016, 20:27 | Статус: Онлайн

отец и сын - класс надо глянуть!
Информация
Посетители, находящиеся в группе Гости, не могут оставлять комментарии к данной публикации.