Панель пользователя
Регистрация

Воспользуйтесь социальными сетями для входа на https://freerutor.com

vk odnoklassniki facebook mailru yandex google
Популярное
Счетчик
Голосуй за нас
VIP на сайте
Популярное
Товары интернет магазина
загрузка...

Заброшенный (2015) BDRip 720p | Чистый звук

Заброшенный (2015) BDRip 720p | Чистый звук
Участники торрент обмена
Сидов Пиров Скачали
6 0 721
Характеристика
Размер Файлы
3.88 GB
Поделиться раздачей
Фильмы (720,1080,Blu-Ray)
Наименование: Заброшенный
Оригинальное наименование: Forsaken
Категория: Драма, вестерн
Произведено: Канада, Франция / Minds Eye Entertainment, Panacea Entertainment, Moving Pictures Media
Режиссер постановщик: Джон Кассар
В главных ролях: Деми Мур, Кифер Сазерленд, Дональд Сазерленд, Брайан Кокс, Майкл Уинкотт, Лэндон Либуарон, Уэсли Морган
Краткое описание: Наёмный убийца Джон Генри оставляет своё кровавое ремесло и возвращается в родной город, надеясь восстановить отношения с собственным отцом. Его отец не сильно рад возвращению сына. Но ремонт родного дома, общее дело постепенно сближает мужчин. Джон узнет, что город терроризируют бандиты. Они разрушают все, что встречают на своем пути и отбирают последние копейки у работяг. Теперь ему придется вспомнить все то, что он делал на Диком Западе, и защитить родной город от бандитов.
  • Видео данные: MPEG-4 AVC, 3922 Кбит/с, 1280x534
    Аудио данные: Русский (AC3, 2 ch, 192 Кбит/с), (AC3, 6 ch, 448 Кбит/с), английский (DTS, 6 ch, 1509 Кбит/с)
    Перевод: Дублированный [официальный] / Профессиональный многоголосый [Focus Studio]
    Субтитры: Русские, английские
    Продолжительность: 01:29:36
  • Заброшенный (2015) BDRip 720p | Чистый звук Заброшенный (2015) BDRip 720p | Чистый звук Заброшенный (2015) BDRip 720p | Чистый звук
  • Общее
    Уникальный идентификатор : 254384092374616426912297018395628144431 (0xBF60981626C53141B39399C65DAC072F)
    Полное имя : D:\загрузки\Forsaken.D.MVO.2015.BluRay.720p.mkv
    Формат : Matroska
    Версия формата : Version 4 / Version 2
    Размер файла : 3,88 Гбайт
    Продолжительность : 1 ч. 29 м.
    Общий поток : 6194 Кбит/сек
    Дата кодирования : UTC 2016-07-19 00:50:13
    Программа кодирования : mkvmerge v8.3.0 ('Over the Horizon') 64bit
    Библиотека кодирования : libebml v1.3.1 + libmatroska v1.4.2

    Видео
    Идентификатор : 1
    Формат : AVC
    Формат/Информация : Advanced Video Codec
    Профиль формата : High@L4.1
    Параметр CABAC формата : Да
    Параметр ReFrames формата : 12 кадров
    Идентификатор кодека : V_MPEG4/ISO/AVC
    Продолжительность : 1 ч. 29 м.
    Битрейт : 3922 Кбит/сек
    Ширина : 1280 пикселей
    Высота : 534 пикселя
    Соотношение сторон : 2,40:1
    Режим частоты кадров : Постоянный
    Частота кадров : 23,976 кадра/сек
    Цветовое пространство : YUV
    Субдискретизация насыщенности : 4:2:0
    Битовая глубина : 8 бит
    Тип развёртки : Прогрессивная
    Бит/(Пиксели*Кадры) : 0.239
    Размер потока : 2,45 Гбайт (63%)
    Библиотека кодирования : x264 core 142 r2431+42 c69a006 tMod [8-bit@all X86_64]
    Настройки программы : cabac=1 / ref=12 / deblock=1:-3:-3 / analyse=0x3:0x133 / me=umh / subme=11 / psy=1 / fade_compensate=0.00 / psy_rd=1.05:1.00 / mixed_ref=1 / me_range=32 / chroma_me=1 / trellis=2 / 8x8dct=1 / cqm=0 / deadzone=21,11 / fast_pskip=0 / chroma_qp_offset=-4 / threads=12 / lookahead_threads=2 / sliced_threads=0 / nr=0 / decimate=0 / interlaced=0 / bluray_compat=0 / constrained_intra=0 / fgo=0 / bframes=8 / b_pyramid=2 / b_adapt=2 / b_bias=0 / direct=3 / weightb=1 / open_gop=0 / weightp=2 / keyint=240 / keyint_min=23 / scenecut=40 / intra_refresh=0 / rc_lookahead=60 / rc=crf / mbtree=0 / crf=18.0000 / qcomp=0.60 / qpmin=0:0:0 / qpmax=69:69:69 / qpstep=4 / vbv_maxrate=40000 / vbv_bufsize=30000 / crf_max=0.0 / nal_hrd=none / filler=0 / ip_ratio=1.40 / pb_ratio=1.30 / aq=1:1.00 / aq-sensitivity=10.00 / aq-factor=1.00:1.00:1.00 / aq2=0 / aq3=0
    Язык : English
    Default : Да
    Forced : Нет

    Аудио #1
    Идентификатор : 2
    Формат : AC-3
    Формат/Информация : Audio Coding 3
    Расширение режима : CM (complete main)
    Параметр Endianness формата : Big
    Идентификатор кодека : A_AC3
    Продолжительность : 1 ч. 29 м.
    Вид битрейта : Постоянный
    Битрейт : 192 Кбит/сек
    Каналы : 2 канала
    Расположение каналов : Front: L R
    Частота : 48,0 КГц
    Битовая глубина : 16 бит
    Метод сжатия : С потерями
    Размер потока : 123 Мбайт (3%)
    Заголовок : Line
    Язык : Russian
    Default : Да
    Forced : Нет

    Аудио #2
    Идентификатор : 3
    Формат : AC-3
    Формат/Информация : Audio Coding 3
    Расширение режима : CM (complete main)
    Параметр Endianness формата : Big
    Идентификатор кодека : A_AC3
    Продолжительность : 1 ч. 29 м.
    Вид битрейта : Постоянный
    Битрейт : 448 Кбит/сек
    Каналы : 6 каналов
    Расположение каналов : Front: L C R, Side: L R, LFE
    Частота : 48,0 КГц
    Битовая глубина : 16 бит
    Метод сжатия : С потерями
    Размер потока : 287 Мбайт (7%)
    Заголовок : FocusStudio
    Язык : Russian
    Default : Нет
    Forced : Нет

    Аудио #3
    Идентификатор : 4
    Формат : DTS
    Формат/Информация : Digital Theater Systems
    Режим : 16
    Параметр Endianness формата : Big
    Идентификатор кодека : A_DTS
    Продолжительность : 1 ч. 29 м.
    Вид битрейта : Постоянный
    Битрейт : 1509 Кбит/сек
    Каналы : 6 каналов
    Расположение каналов : Front: L C R, Side: L R, LFE
    Частота : 48,0 КГц
    Битовая глубина : 16 бит
    Метод сжатия : С потерями
    Размер потока : 967 Мбайт (24%)
    Язык : English
    Default : Нет
    Forced : Нет

    Текст #1
    Идентификатор : 5
    Формат : UTF-8
    Идентификатор кодека : S_TEXT/UTF8
    Идентификатор кодека/Информация : UTF-8 Plain Text
    Заголовок : full
    Язык : Russian
    Default : Нет
    Forced : Нет

    Текст #2
    Идентификатор : 6
    Формат : UTF-8
    Идентификатор кодека : S_TEXT/UTF8
    Идентификатор кодека/Информация : UTF-8 Plain Text
    Заголовок : full
    Язык : English
    Default : Нет
    Forced : Нет

    Текст #3
    Идентификатор : 7
    Формат : UTF-8
    Идентификатор кодека : S_TEXT/UTF8
    Идентификатор кодека/Информация : UTF-8 Plain Text
    Заголовок : SDH
    Язык : English
    Default : Нет
    Forced : Нет

    Меню
    00:00:00.000 : en:00:00:00.000
    00:04:01.199 : en:00:04:01.199
    00:10:27.043 : en:00:10:27.043
    00:17:04.982 : en:00:17:04.982
    00:22:49.076 : en:00:22:49.076
    00:27:14.591 : en:00:27:14.591
    00:33:08.862 : en:00:33:08.862
    00:38:31.559 : en:00:38:31.559
    00:43:52.004 : en:00:43:52.004
    00:50:08.881 : en:00:50:08.881
    00:55:19.066 : en:00:55:19.066
    01:00:12.651 : en:01:00:12.651
    01:06:26.232 : en:01:06:26.232
    01:12:33.266 : en:01:12:33.266
    01:19:02.321 : en:01:19:02.321
    01:25:28.123 : en:01:25:28.123
10.0 из 10
голосов: 2
/10
/10
karta 19-07-2016, 04:05

DENZEL519 | 19-07-2016, 04:14 | Статус: Оффлайн

А что скрины разные? 1 отличается от последующих.
Информация
Посетители, находящиеся в группе Гости, не могут оставлять комментарии к данной публикации.