Панель пользователя
Регистрация

Воспользуйтесь социальными сетями для входа на https://freerutor.com

vk odnoklassniki facebook mailru yandex google
Популярное
Счетчик
Голосуй за нас
VIP на сайте
Популярное
Товары интернет магазина
загрузка...

5-я волна / The 5th Wave (2016) HDRip-AVC | Лицензия

5-я волна / The 5th Wave (2016) HDRip-AVC | Лицензия
Участники торрент обмена
Сидов Пиров Скачали
3 0 1249
Характеристика
Размер Файлы
1.64 GB
Поделиться раздачей
Фильмы (AVC)
Наименование: 5-я волна
Оригинальное наименование: The 5th Wave
Произведено: США
Категория: фантастика, боевик, триллер, приключения
Режиссер постановщик: Дж. Блэйксон
В главных ролях: Хлоя Грейс Морец, Ник Дж. Робинсон, Рон Ливингстон, Мэгги Сифф, Алекс Роу, Мария Белло, Майка Монро, Лив Шрайбер, Закари Артур, Тони Револори
Краткое описание: Первая волна оставила за собой мглу. От второй успели убежать только самые везучие. Но едва ли можно назвать везучими тех, кто уцелел после третьей. А четвертая волна стерла все человеческие законы, взамен же установила свой, один-единственный: хочешь жить - не верь никому. И вот уже накатывает пятая волна...
  • Видео данные: MPEG-4 AVC, 1250 Кбит/с, 1024х428
    Аудио данные: Русский (AC3, 6 ch, 384 Кбит/с), английский (AC3, 6 ch, 448 Кбит/с)
    Перевод: Дублированный [iTunes]
    Субтитры: Русские
    Продолжительность: 01:52:22
  • 5-я волна / The 5th Wave (2016) HDRip-AVC | Лицензия 5-я волна / The 5th Wave (2016) HDRip-AVC | Лицензия
  • Общее
    Уникальный идентификатор : 228369599943845534232787378335153874687 (0xABCE629562F80604A58CC1776C0F66FF)
    Полное имя : The.5th.Wave.2016.BDRip.AVC.mkv
    Формат : Matroska
    Версия формата : Version 4 / Version 2
    Размер файла : 1,64 Гбайт
    Продолжительность : 1 ч. 52 м.
    Общий поток : 2084 Кбит/сек
    Название фильма : The.5th.Wave.2016.BDRip.AVC.
    Дата кодирования : UTC 2016-04-08 20:23:48
    Программа кодирования : mkvmerge v8.9.0 ('Father Daughter') 64bit
    Библиотека кодирования : libebml v1.3.3 + libmatroska v1.4.4
    DURATION : 01:50:30.005000000
    NUMBER_OF_FRAMES : 1245
    NUMBER_OF_BYTES : 55094
    _STATISTICS_WRITING_APP : mkvmerge v8.9.0 ('Father Daughter') 64bit
    _STATISTICS_WRITING_DATE_UTC : 2016-04-07 20:23:48
    _STATISTICS_TAGS : BPS DURATION NUMBER_OF_FRAMES NUMBER_OF_BYTES

    Видео
    Идентификатор : 1
    Формат : AVC
    Формат/Информация : Advanced Video Codec
    Профиль формата : High@L4.1
    Параметр CABAC формата : Да
    Параметр ReFrames формата : 8 кадров
    Идентификатор кодека : V_MPEG4/ISO/AVC
    Продолжительность : 1 ч. 52 м.
    Битрейт : 1250 Кбит/сек
    Ширина : 1024 пикселя
    Высота : 428 пикселей
    Соотношение сторон : 2,40:1
    Режим частоты кадров : Постоянный
    Частота кадров : 23,976 кадра/сек
    Цветовое пространство : YUV
    Субдискретизация насыщенности : 4:2:0
    Битовая глубина : 8 бит
    Тип развёртки : Прогрессивная
    Бит/(Пиксели*Кадры) : 0.119
    Размер потока : 973 Мбайт (58%)
    Библиотека кодирования : x264 core 148 r2638 7599210
    Настройки программы : cabac=1 / ref=8 / deblock=1:-2:-2 / analyse=0x3:0x133 / me=umh / subme=9 / psy=1 / psy_rd=1.00:0.00 / mixed_ref=1 / me_range=32 / chroma_me=1 / trellis=2 / 8x8dct=1 / cqm=0 / deadzone=21,11 / fast_pskip=1 / chroma_qp_offset=-2 / threads=12 / lookahead_threads=2 / sliced_threads=0 / nr=0 / decimate=1 / interlaced=0 / bluray_compat=0 / constrained_intra=0 / bframes=7 / b_pyramid=2 / b_adapt=2 / b_bias=0 / direct=3 / weightb=1 / open_gop=0 / weightp=2 / keyint=240 / keyint_min=23 / scenecut=0 / intra_refresh=0 / rc_lookahead=60 / rc=2pass / mbtree=0 / bitrate=1250 / ratetol=1.0 / qcomp=0.70 / qpmin=0 / qpmax=69 / qpstep=4 / cplxblur=20.0 / qblur=0.5 / vbv_maxrate=30000 / vbv_bufsize=40000 / nal_hrd=none / filler=0 / ip_ratio=1.40 / pb_ratio=1.30 / aq=1:1.00
    Язык : English
    Default : Да
    Forced : Нет
    Цветовой диапазон : Limited
    Основные цвета : BT.709
    Характеристики трансфера : BT.709
    Коэффициенты матрицы : BT.709

    Аудио #1
    Идентификатор : 2
    Формат : AC-3
    Формат/Информация : Audio Coding 3
    Расширение режима : CM (complete main)
    Параметр Endianness формата : Big
    Идентификатор кодека : A_AC3
    Продолжительность : 1 ч. 52 м.
    Вид битрейта : Постоянный
    Битрейт : 384 Кбит/сек
    Каналы : 6 каналов
    Расположение каналов : Front: L C R, Side: L R, LFE
    Частота : 48,0 КГц
    Метод сжатия : С потерями
    Задержка видео : 1 с. 0 мс.
    Размер потока : 309 Мбайт (18%)
    Заголовок : DUB [iTunes]
    Язык : Russian
    Default : Да
    Forced : Нет

    Аудио #2
    Идентификатор : 3
    Формат : AC-3
    Формат/Информация : Audio Coding 3
    Расширение режима : CM (complete main)
    Параметр Endianness формата : Big
    Идентификатор кодека : A_AC3
    Продолжительность : 1 ч. 52 м.
    Вид битрейта : Постоянный
    Битрейт : 448 Кбит/сек
    Каналы : 6 каналов
    Расположение каналов : Front: L C R, Side: L R, LFE
    Частота : 48,0 КГц
    Метод сжатия : С потерями
    Размер потока : 360 Мбайт (21%)
    Язык : English
    Default : Нет
    Forced : Нет

    Текст
    Идентификатор : 4
    Формат : UTF-8
    Идентификатор кодека : S_TEXT/UTF8
    Идентификатор кодека/Информация : UTF-8 Plain Text
    Язык : Russian
    Default : Нет
    Forced : Нет

    Меню
    00:00:00.000 : en:00:00:00.000
    00:03:48.562 : en:00:03:48.562
    00:09:05.837 : en:00:09:05.837
    00:16:01.335 : en:00:16:01.335
    00:20:46.036 : en:00:20:46.036
    00:28:43.430 : en:00:28:43.430
    00:37:41.968 : en:00:37:41.968
    00:45:50.957 : en:00:45:50.957
    00:54:19.715 : en:00:54:19.715
    00:59:47.709 : en:00:59:47.709
    01:06:01.749 : en:01:06:01.749
    01:13:06.132 : en:01:13:06.132
    01:18:13.230 : en:01:18:13.230
    01:25:02.264 : en:01:25:02.264
    01:32:21.161 : en:01:32:21.161
    01:43:07.431 : en:01:43:07.431
7.6 из 10
голосов: 11
/10
/10
grab777 10-04-2016, 19:23

6arbo | 10-04-2016, 19:52 | Статус: Оффлайн

Цитата: avs-23
Фильм так себе...даже хуже.

+10000

avs-23 | 5-04-2016, 18:51 | Статус: Оффлайн

Фильм так себе...даже хуже.
Информация
Посетители, находящиеся в группе Гости, не могут оставлять комментарии к данной публикации.