Панель пользователя
Регистрация

Воспользуйтесь социальными сетями для входа на https://freerutor.com

vk odnoklassniki facebook mailru yandex google
Популярное
Счетчик
Голосуй за нас
VIP на сайте
Популярное
Товары интернет магазина
загрузка...

Подземка / Underground (1 сезон: 1-10 серии из 10) (2016) HDTV 720p | Sunshine Studio

Подземка / Underground (1 сезон: 1-10 серии из 10) (2016) HDTV 720p | Sunshine Studio
Участники торрент обмена
Сидов Пиров Скачали
0 0 66
Характеристика
Размер Файлы
10.20 GB
Релиз группа
Поделиться раздачей
Заруб. сериалы (720P,1080P)
Наименование: Подземка
Оригинальное наименование: Underground
Категория: драма, история
Произведено: США, Sony Pictures Television
Режиссер постановщик: США, Sony Pictures Television
В главных ролях: Алано Миллер, Кристофер Мелони, Амирах Ванн, Джаннетт Сепва, Андреа Франкл, Теодус Крэйн, Адина Портер, Мэри Кэтерин Духон, Мэттью МакКой и др.
Краткое описание: Главными героями сериала станет группа рабов, планирующая смелый побег с плантации в Джорджии. На пути к свободе им предстоит пересечь 600 миль, найти верных друзей — пару тайных аболиционистов, основавших станцию Подземной железной дороги, а также столкнуться с опасными врагами — теми, кто зарабатывает на жизнь, охотясь за беглыми рабами, и не важно в каком состоянии рабы будут возвращены хозяевам, живыми или мертвыми…
  • Видео данные: MPEG-4 AVC, 3500 Кбит/с, 1280x720
    Аудио данные: АС3, 2 ch, 192 Кбит/с
    Перевод: Любительский (двухголосый) Sunshine Studio
    Субтитры: Отсутствуют
    Продолжительность: ~ 00:55:00
  • Подземка / Underground (1 сезон: 1-10 серии из 10) (2016) HDTV 720p | Sunshine Studio Подземка / Underground (1 сезон: 1-10 серии из 10) (2016) HDTV 720p | Sunshine Studio Подземка / Underground (1 сезон: 1-10 серии из 10) (2016) HDTV 720p | Sunshine Studio
  • Формат : Matroska
    Версия формата : Version 1
    Размер файла : 1,38 Гбайт
    Продолжительность : 55 м.
    Общий поток : 3584 Кбит/сек
    Дата кодирования : UTC 2016-03-12 06:54:14
    Программа кодирования : mkvmerge v2.4.0 ('Fumbling Towards Ecstasy') built on Oct 11 2008 20:13:15
    Библиотека кодирования : libebml v0.7.7 + libmatroska v0.8.1

    Видео
    Идентификатор : 1
    Формат : AVC
    Формат/Информация : Advanced Video Codec
    Профиль формата : High@L3
    Параметр CABAC формата : Нет
    Параметр ReFrames формата : 1 кадр
    Идентификатор кодека : V_MPEG4/ISO/AVC
    Продолжительность : 55 м.
    Битрейт : 3321 Кбит/сек
    Номинальный битрейт : 3500 Кбит/сек
    Ширина : 1280 пикселей
    Высота : 720 пикселей
    Соотношение сторон : 16:9
    Режим частоты кадров : Постоянный
    Частота кадров : 29,970 (29970/1000) кадров/сек
    Цветовое пространство : YUV
    Субдискретизация насыщенности : 4:2:0
    Битовая глубина : 8 бит
    Тип развёртки : Прогрессивная
    Бит/(Пиксели*Кадры) : 0.120
    Размер потока : 1,28 Гбайт (93%)
    Библиотека кодирования : x264 core 80 r1378+57 6f6b50a
    Настройки программы : cabac=0 / ref=1 / deblock=1:0:0 / analyse=0x3:0x113 / me=hex / subme=7 / psy=1 / psy_rd=1.0:0.0 / mixed_ref=0 / me_range=16 / chroma_me=1 / trellis=0 / 8x8dct=1 / cqm=0 / deadzone=21,11 / fast_pskip=1 / chroma_qp_offset=-2 / threads=6 / sliced_threads=0 / nr=0 / decimate=1 / mbaff=0 / constrained_intra=0 / bframes=0 / wpredp=2 / keyint=250 / keyint_min=25 / scenecut=40 / rc_lookahead=40 / rc=abr / mbtree=1 / bitrate=3500 / ratetol=1.0 / qcomp=0.60 / qpmin=10 / qpmax=51 / qpstep=4 / ip_ratio=1.40 / aq=1:1.00
    Default : Да
    Forced : Нет

    Аудио
    Идентификатор : 2
    Формат : AC-3
    Формат/Информация : Audio Coding 3
    Расширение режима : CM (complete main)
    Параметр Endianness формата : Big
    Идентификатор кодека : A_AC3
    Продолжительность : 55 м.
    Вид битрейта : Постоянный
    Битрейт : 192 Кбит/сек
    Каналы : 2 канала
    Расположение каналов : Front: L R
    Частота : 48,0 КГц
    Частота кадров : 31,250 кадров/сек (1536 spf)
    Метод сжатия : С потерями
    Размер потока : 75,8 Мбайт (5%)
    Default : Да
    Forced : Нет
3.3 из 10
голосов: 4
/10
/10
Раздачу отредактировал: OLEG270877 - 12-05-2016, 21:29
По причине: (+10 серия)
OLEG270877 12-05-2016, 21:29
Информация
Посетители, находящиеся в группе Гости, не могут оставлять комментарии к данной публикации.