Панель пользователя
Регистрация

Воспользуйтесь социальными сетями для входа на https://freerutor.com

vk odnoklassniki facebook mailru yandex google
Популярное
Счетчик
Голосуй за нас
VIP на сайте
Популярное
Товары интернет магазина
загрузка...

Чемпионы: Быстрее. Выше. Сильнее (2016) WEB-DLRip-AVC | Лицензия

Чемпионы: Быстрее. Выше. Сильнее (2016) WEB-DLRip-AVC | Лицензия
Участники торрент обмена
Сидов Пиров Скачали
5 0 3295
Характеристика
Размер Файлы
1.46 GB
Релиз группа
Поделиться раздачей
Фильмы (AVC)
Наименование: Чемпионы: Быстрее. Выше. Сильнее
Категория: Спорт, драма
Произведено: Россия / Enjoy Movies
Режиссер постановщик: Артем Аксененко
В главных ролях: Сергей Бондарчук, Евгений Пронин, Кристина Асмус, Егор Корешков, Александр Робак, Дарья Екамасова, Сергей Сосновский
Краткое описание: В мире их называли «Асфальтоукладчик», «Королева брусьев» и «Русская торпеда». Борец Александр Карелин, гимнастка Светлана Хоркина и пловец Александр Попов — реальные истории трех легендарных российских спортсменов, на общем счету которых 9 золотых олимпийских медалей и больше тысячи побед! У каждого был свой путь, своя уникальная драматическая история восхождения. Три яркие новеллы, основанные на реальных событиях, расскажут о том, что осталось за кадром спортивной хроники и каким был путь к высшему спортивному достижению — Олимпийский чемпион. Они стали легендами мирового спорта и дали возможность всей стране сказать «Мы победили!».
  • Видео данные: MPEG-4 AVC, 1628 Кбит/с, 1024x436
    Аудио данные: AC3, 6 ch, 384 Кбит/с
    Перевод: Оригинал [iTunes]
    Продолжительность: 01:43:45
  • Чемпионы: Быстрее. Выше. Сильнее (2016) WEB-DLRip-AVC | Лицензия Чемпионы: Быстрее. Выше. Сильнее (2016) WEB-DLRip-AVC | Лицензия Чемпионы: Быстрее. Выше. Сильнее (2016) WEB-DLRip-AVC | Лицензия
  • Общее
    Уникальный идентификатор : 232283754874229500653282821055619176460 (0xAEC0395236267C7AB485DDF8CAC2980C)
    Полное имя : D:ВидеоChemp1oH1.Bystree.Vishe.S1LHee.2016.WEB-DLRip-AVC by Vovan366(ExKinoRay).mkv
    Формат : Matroska
    Версия формата : Version 2
    Размер файла : 1,46 Гбайт
    Продолжительность : 1 ч. 43 м.
    Общий поток : 2013 Кбит/сек
    Дата кодирования : UTC 2016-03-19 07:21:37
    Программа кодирования : mkvmerge v7.8.0 ('River Man') 32bit built on Apr 3 2015 12:11:22
    Библиотека кодирования : libebml v1.3.1 + libmatroska v1.4.2

    Видео
    Идентификатор : 1
    Формат : AVC
    Формат/Информация : Advanced Video Codec
    Профиль формата : High@L4.1
    Параметр CABAC формата : Да
    Параметр ReFrames формата : 10 кадров
    Идентификатор кодека : V_MPEG4/ISO/AVC
    Продолжительность : 1 ч. 43 м.
    Битрейт : 1628 Кбит/сек
    Ширина : 1024 пикселя
    Высота : 436 пикселей
    Соотношение сторон : 2,35:1
    Режим частоты кадров : Постоянный
    Частота кадров : 24,000 кадра/сек
    Цветовое пространство : YUV
    Субдискретизация насыщенности : 4:2:0
    Битовая глубина : 8 бит
    Тип развёртки : Прогрессивная
    Бит/(Пиксели*Кадры) : 0.152
    Размер потока : 1,15 Гбайт (79%)
    Библиотека кодирования : x264 core 148 r2638 7599210
    Настройки программы : cabac=1 / ref=10 / deblock=1:-3:-3 / analyse=0x3:0x113 / me=umh / subme=10 / psy=1 / psy_rd=1.01:0.10 / mixed_ref=1 / me_range=32 / chroma_me=1 / trellis=2 / 8x8dct=1 / cqm=0 / deadzone=21,11 / fast_pskip=0 / chroma_qp_offset=-3 / threads=6 / lookahead_threads=1 / sliced_threads=0 / nr=0 / decimate=0 / interlaced=0 / bluray_compat=0 / constrained_intra=0 / bframes=8 / b_pyramid=2 / b_adapt=2 / b_bias=0 / direct=3 / weightb=1 / open_gop=0 / weightp=2 / keyint=240 / keyint_min=24 / scenecut=40 / intra_refresh=0 / rc=2pass / mbtree=0 / bitrate=1628 / ratetol=1.0 / qcomp=0.60 / qpmin=0 / qpmax=69 / qpstep=4 / cplxblur=20.0 / qblur=0.5 / ip_ratio=1.40 / pb_ratio=1.30 / aq=1:1.00
    Default : Да
    Forced : Нет
    Основные цвета : BT.709
    Характеристики трансфера : BT.709
    Коэффициенты матрицы : BT.709

    Аудио
    Идентификатор : 2
    Формат : AC-3
    Формат/Информация : Audio Coding 3
    Расширение режима : CM (complete main)
    Параметр Endianness формата : Big
    Идентификатор кодека : A_AC3
    Продолжительность : 1 ч. 43 м.
    Вид битрейта : Постоянный
    Битрейт : 384 Кбит/сек
    Каналы : 6 каналов
    Расположение каналов : Front: L C R, Side: L R, LFE
    Частота : 48,0 КГц
    Битовая глубина : 16 бит
    Метод сжатия : С потерями
    Размер потока : 285 Мбайт (19%)
    Default : Да
    Forced : Нет
7.2 из 10
голосов: 13
/10
/10
grab777 19-03-2016, 13:54

Pepsi1980 | 20-03-2016, 19:27 | Статус: Оффлайн

Слава Российскому Спорту. Так держать. Великолепный фильм.

zona | 19-03-2016, 14:31 | Статус: Оффлайн

мое мнение - Асмус отстой

125RUS | 19-03-2016, 14:27 | Статус: Оффлайн

Цитата: Avenir97
Отличный фильм! Кристина - выше всех похвал, умничка!

Полностью согласен. ok

Avenir97 | 19-03-2016, 14:05 | Статус: Оффлайн

Отличный фильм! Кристина - выше всех похвал, умничка!
Информация
Посетители, находящиеся в группе Гости, не могут оставлять комментарии к данной публикации.