Панель пользователя
Регистрация

Воспользуйтесь социальными сетями для входа на https://freerutor.com

vk odnoklassniki facebook mailru yandex google
Популярное
Счетчик
Голосуй за нас
VIP на сайте
Популярное
Товары интернет магазина
загрузка...

Когда зовет сердце (2 сезон 1-7 серии из 7) (2015) WEB-DL 720р | RedDiamond Studio

Когда зовет сердце (2 сезон 1-7 серии из 7) (2015) WEB-DL 720р | RedDiamond Studio
Участники торрент обмена
Сидов Пиров Скачали
0 0 3
Характеристика
Размер Файлы
14.17 GB
Релиз группа
Поделиться раздачей
Заруб. сериалы (720P,1080P)
Наименование: Когда зовет сердце
Оригинальное наименование: When Calls the Heart
Категория: мелодрама
Произведено: США
Режиссер постановщик: Нилл Фернли, Энн Вилер, Майкл Лэндон мл.
В главных ролях: Эрин Краков, Дэниел Лиссинг, Мартин Камминс, Чела Хорсдэл, Лори Лафлин, Митчелл Каммен, Грэйсин Шиней, Джоанна Ньюмарк, Эрика Кэрролл, Кэтлин Магер, Хротгар Мэтьюз, Лоретта Уолш, Джилл Моррисон, Адриан Хью, Стив Бачич, Брент Стейт, Шарлотта Хегеле, Эрик Брекер, Брюс Харвуд, Билл Дау, Джек Вагнер, Эндрю В. Уолкер, Паскаль Хаттон и др.
Краткое описание: История Элизабет Тэтчер, молодой учительницы, привыкшей вести светскую жизнь, которая получает свое первое назначение в провинциальный городок на западной границе, что приводит ее к знакомству с своевольными вдовами шахтеров. Элизабет полна решимости доказать своей семье, что она достаточна сильна, чтобы жить своей собственной жизнью, тем временем борясь с собственными страхами и сомнениями.
  • Видео данные: MPEG-4 AVC, ~ 4000 Кбит/с, 1280x718
    Аудио данные: Русский (AC3, 6 ch, 384 Кбит/с), Английский (AC3, 6 ch, 384 Кбит/с)
    Перевод: Любительский (двухголосый) RedDiamond Studio
    Субтитры: Отсутствуют
    Продолжительность: ~ 01:25:00
  • Когда зовет сердце (2 сезон 1-7 серии из 7) (2015) WEB-DL 720р | RedDiamond Studio Когда зовет сердце (2 сезон 1-7 серии из 7) (2015) WEB-DL 720р | RedDiamond Studio Когда зовет сердце (2 сезон 1-7 серии из 7) (2015) WEB-DL 720р | RedDiamond Studio
  • Формат : Matroska
    Версия формата : Version 4 / Version 2
    Размер файла : 2,84 Гбайт
    Продолжительность : 1 ч. 24 м.
    Общий поток : 4830 Кбит/сек
    Дата кодирования : UTC 2016-03-09 21:16:54
    Программа кодирования : mkvmerge v8.5.0 ('Vanishing Act') 32bit
    Библиотека кодирования : libebml v1.3.1 + libmatroska v1.4.2
    Обложка : Yes
    Attachments : small_cover.jpg / cover.jpg / cover_land.jpg / small_cover_land.jpg

    Видео
    Идентификатор : 1
    Формат : AVC
    Формат/Информация : Advanced Video Codec
    Профиль формата : High@L3.1
    Параметр CABAC формата : Нет
    Параметр ReFrames формата : 2 кадра
    Идентификатор кодека : V_MPEG4/ISO/AVC
    Продолжительность : 1 ч. 24 м.
    Битрейт : 4060 Кбит/сек
    Ширина : 1280 пикселей
    Высота : 718 пикселей
    Соотношение сторон : 16:9
    Режим частоты кадров : Постоянный
    Частота кадров : 23,976 (23976/1000) кадра/сек
    Цветовое пространство : YUV
    Субдискретизация насыщенности : 4:2:0
    Битовая глубина : 8 бит
    Тип развёртки : Прогрессивная
    Бит/(Пиксели*Кадры) : 0.184
    Размер потока : 2,39 Гбайт (84%)
    Язык : English
    Default : Да
    Forced : Нет
    Цветовой диапазон : Limited
    Основные цвета : BT.709
    Характеристики трансфера : BT.709
    Коэффициенты матрицы : BT.709

    Аудио #1
    Идентификатор : 2
    Формат : E-AC-3
    Формат/Информация : Audio Coding 3
    Параметр Endianness формата : Big
    Идентификатор кодека : A_EAC3
    Продолжительность : 1 ч. 24 м.
    Вид битрейта : Постоянный
    Битрейт : 384 Кбит/сек
    Каналы : 6 каналов
    Расположение каналов : Front: L C R, Side: L R, LFE
    Частота : 48,0 КГц
    Частота кадров : 187,500 кадров/сек (256 spf)
    Метод сжатия : С потерями
    Размер потока : 231 Мбайт (8%)
    Язык : Russian
    Default : Да
    Forced : Нет

    Аудио #2
    Идентификатор : 3
    Формат : AC-3
    Формат/Информация : Audio Coding 3
    Расширение режима : CM (complete main)
    Параметр Endianness формата : Big
    Идентификатор кодека : A_AC3
    Продолжительность : 1 ч. 24 м.
    Вид битрейта : Постоянный
    Битрейт : 384 Кбит/сек
    Каналы : 6 каналов
    Расположение каналов : Front: L C R, Side: L R, LFE
    Частота : 48,0 КГц
    Частота кадров : 31,250 кадров/сек (1536 spf)
    Метод сжатия : С потерями
    Размер потока : 231 Мбайт (8%)
    Язык : English
    Default : Нет
    Forced : Нет
10.0 из 10
голосов: 2
/10
/10
Раздачу отредактировал: OLEG270877 - 21-07-2016, 10:32
По причине: (+7 серия)
OLEG270877 21-07-2016, 10:32
Информация
Посетители, находящиеся в группе Гости, не могут оставлять комментарии к данной публикации.