Панель пользователя
Регистрация

Воспользуйтесь социальными сетями для входа на https://freerutor.com

vk odnoklassniki facebook mailru yandex google
Популярное
Счетчик
Голосуй за нас
VIP на сайте
Популярное
Товары интернет магазина
загрузка...

Лунный флаг / Capture the Flag (2015) BDRip 720p | Лицензия

Лунный флаг / Capture the Flag (2015) BDRip 720p | Лицензия
Участники торрент обмена
Сидов Пиров Скачали
14 0 1618
Характеристика
Размер Файлы
2.64 GB
Поделиться раздачей
Мультфильмы
Наименование: Лунный флаг
Оригинальное наименование: Capture the Flag
Категория: Мультфильм, комедия, приключения
Произведено: Испания
Режиссер постановщик: Энрике Гато
В главных ролях: Дэни Ровира, Мишель Хеннер, Карме Калвелл, Хавьер Балас, Камилло Гарсия, Тони Мора, Марта Барбара, Фернандо Гарсия Кабрера, Ксавьер Касан, Ориол Тарраго
Краткое описание: 12-летний Майк вместе со своими друзьями пытается спасти Луну от захвата злобным миллиардером Карсоном. Но для этого надо всего лишь… полететь в космос. Удастся ли обыкновенным подросткам пробраться на космическую базу, прилуниться и победить коварного злодея? Для этого понадобится помощь друзей, верной домашней ящерицы и родного деда. Большое космическое приключение, объединившее всю семью, начинается!
  • Видео данные:MPEG-4 AVC, 2943 Кбит/с, 1280x536
    Аудио данные: Русский (AC3, 6 ch, 384 Кбит/с), английский: (AC3, 6 ch, 640 Кбит/с )
    Перевод: Дублированный [iTunes]
    Продолжительность: 01:34:38
    Релиз без рекламы!
  • Лунный флаг / Capture the Flag (2015) BDRip 720p | Лицензия Лунный флаг / Capture the Flag (2015) BDRip 720p | Лицензия
  • x264 [info]: profile High, level 4.1
    x264 [info]: frame I:1464 Avg QP:14.50 size: 93394
    x264 [info]: frame P:36006 Avg QP:17.30 size: 29639
    x264 [info]: frame B:98688 Avg QP:19.93 size: 8968
    x264 [info]: consecutive B-frames: 5.6% 5.0% 14.8% 23.9% 14.1% 25.2% 5.5% 3.8% 2.1%
    ===============================================
    Общее
    Уникальный идентификатор : 252779988033203358825553497693205966762 (0xBE2BA7A2E7F428E2BDD80E69838E2FAA)
    Полное имя : D:\загрузки\Capture.the.Flag.2015.D.BluRay.720p.mkv
    Формат : Matroska
    Версия формата : Version 4 / Version 2
    Размер файла : 2,64 Гбайт
    Продолжительность : 1 ч. 34 м.
    Общий поток : 3992 Кбит/сек
    Дата кодирования : UTC 2016-06-21 00:58:53
    Программа кодирования : mkvmerge v8.3.0 ('Over the Horizon') 64bit
    Библиотека кодирования : libebml v1.3.1 + libmatroska v1.4.2

    Видео
    Идентификатор : 1
    Формат : AVC
    Формат/Информация : Advanced Video Codec
    Профиль формата : High@L4.1
    Параметр CABAC формата : Да
    Параметр ReFrames формата : 12 кадров
    Идентификатор кодека : V_MPEG4/ISO/AVC
    Продолжительность : 1 ч. 34 м.
    Битрейт : 2888 Кбит/сек
    Ширина : 1280 пикселей
    Высота : 536 пикселей
    Соотношение сторон : 2,40:1
    Режим частоты кадров : Постоянный
    Частота кадров : 23,976 кадра/сек
    Цветовое пространство : YUV
    Субдискретизация насыщенности : 4:2:0
    Битовая глубина : 8 бит
    Тип развёртки : Прогрессивная
    Бит/(Пиксели*Кадры) : 0.176
    Размер потока : 1,91 Гбайт (72%)
    Заголовок : Capture.the.Flag.2015.BluRay.720p.DD5.1.x264-EPiC@HDArea
    Библиотека кодирования : x264 core 142 r2431+42 c69a006 tMod [8-bit@all X86_64]
    Настройки программы : cabac=1 / ref=12 / deblock=1:-1:-1 / analyse=0x3:0x133 / me=umh / subme=11 / psy=1 / fade_compensate=0.00 / psy_rd=0.40:0.00 / mixed_ref=1 / me_range=32 / chroma_me=1 / trellis=2 / 8x8dct=1 / cqm=0 / deadzone=21,11 / fast_pskip=0 / chroma_qp_offset=-2 / threads=60 / lookahead_threads=4 / sliced_threads=0 / nr=0 / decimate=0 / interlaced=0 / bluray_compat=0 / constrained_intra=0 / fgo=0 / bframes=8 / b_pyramid=2 / b_adapt=2 / b_bias=0 / direct=3 / weightb=1 / open_gop=0 / weightp=2 / keyint=240 / keyint_min=23 / scenecut=40 / intra_refresh=0 / rc_lookahead=60 / rc=crf / mbtree=0 / crf=16.0000 / qcomp=0.60 / qpmin=0:0:0 / qpmax=69:69:69 / qpstep=4 / vbv_maxrate=40000 / vbv_bufsize=30000 / crf_max=0.0 / nal_hrd=none / filler=0 / ip_ratio=1.40 / pb_ratio=1.30 / aq=1:0.60 / aq-sensitivity=10.00 / aq-factor=1.00:1.00:1.00 / aq2=0 / aq3=0
    Язык : English
    Default : Да
    Forced : Нет

    Аудио #1
    Идентификатор : 4
    Формат : AC-3
    Формат/Информация : Audio Coding 3
    Расширение режима : CM (complete main)
    Параметр Endianness формата : Big
    Идентификатор кодека : A_AC3
    Продолжительность : 1 ч. 34 м.
    Вид битрейта : Постоянный
    Битрейт : 384 Кбит/сек
    Каналы : 6 каналов
    Расположение каналов : Front: L C R, Side: L R, LFE
    Частота : 48,0 КГц
    Битовая глубина : 16 бит
    Метод сжатия : С потерями
    Размер потока : 260 Мбайт (10%)
    Заголовок : iTunes
    Язык : Russian
    Default : Да
    Forced : Нет

    Аудио #2
    Идентификатор : 5
    Формат : AC-3
    Формат/Информация : Audio Coding 3
    Расширение режима : CM (complete main)
    Параметр Endianness формата : Big
    Идентификатор кодека : A_AC3
    Продолжительность : 1 ч. 34 м.
    Вид битрейта : Постоянный
    Битрейт : 640 Кбит/сек
    Каналы : 6 каналов
    Расположение каналов : Front: L C R, Side: L R, LFE
    Частота : 48,0 КГц
    Битовая глубина : 16 бит
    Метод сжатия : С потерями
    Размер потока : 433 Мбайт (16%)
    Язык : English
    Default : Нет
    Forced : Нет

    Текст #1
    Идентификатор : 2
    Формат : PGS
    Режим смешивания : zlib
    Идентификатор кодека : S_HDMV/PGS
    Идентификатор кодека/Информация : The same subtitle format used on BDs/HD-DVDs
    Заголовок : ENG/SUP (SDH)
    Язык : English
    Default : Да
    Forced : Нет

    Текст #2
    Идентификатор : 3
    Формат : PGS
    Режим смешивания : zlib
    Идентификатор кодека : S_HDMV/PGS
    Идентификатор кодека/Информация : The same subtitle format used on BDs/HD-DVDs
    Заголовок : ENG/SUP
    Язык : English
    Default : Нет
    Forced : Нет
1.0 из 10
голосов: 1
/10
/10
foster720p 21-06-2016, 04:05

fktyf13 | 21-06-2016, 14:31 | Статус: Оффлайн

Цитата: karta

Благодарю!

karta | 21-06-2016, 04:06 | Статус: Оффлайн

Информация
Посетители, находящиеся в группе Гости, не могут оставлять комментарии к данной публикации.