Панель пользователя
Регистрация

Воспользуйтесь социальными сетями для входа на https://freerutor.com

vk odnoklassniki facebook mailru yandex google
Популярное
Счетчик
Голосуй за нас
VIP на сайте
Популярное
Товары интернет магазина
загрузка...

Ма Ма / Ma ma (2015) WEB-DLRip-AVC | Мельница

Ма Ма / Ma ma (2015) WEB-DLRip-AVC | Мельница
Участники торрент обмена
Сидов Пиров Скачали
0 0 278
Характеристика
Размер Файлы
1.87 GB
Релиз группа
Поделиться раздачей
Фильмы (HDRip,WEB-DLRip)
Наименование: Ма Ма
Оригинальное наименование: Ma ma
Категория: Драма
Произведено: Испания, Франция, Backup Media, Ma Ma Películas AIE, Mare Nostrum Productions
Режиссер постановщик: Хулио Медем
В главных ролях: Сильвия Абаскаль, Алекс Брендемюль, Елена Карранса, Пенелопа Крус, Николас Де Висенте, Асьер Эчеандиа, Анна Хименес, Хавьер Мартос, Анабель Маурин, Мигель Мота
Краткое описание: Двое мужчин, одна женщина и один десятилетний ребенок переживают потери и триумфы, спорят о футболе, борются со смертью и до смерти любят друг друга. Магда — талантливая учительница и любящая мама, собирает все силы, чтобы победить болезнь и вернуть себе право жить и быть счастливой.
  • Видео данные: MPEG-4 AVC, 1613 Кбит/с, 1024x426
    Аудио данные: Русский (AC3, 2 ch, 192 Кбит/с), испанский (AC3, 6 ch, 384 Кбит/с)
    Перевод: Профессиональный многоголосый [Мельница]
    Субтитры: Русские
    Продолжительность: 02:02:21
  • Ма Ма / Ma ma (2015) WEB-DLRip-AVC | Мельница Ма Ма / Ma ma (2015) WEB-DLRip-AVC | Мельница Ма Ма / Ma ma (2015) WEB-DLRip-AVC | Мельница
  • Общее
    Уникальный идентификатор : 215494854779603882967542740361354248016 (0xA21ECCA363FA7BC7B777E40FACC57F50)
    Полное имя : D:ЗагрузкиMa.Ma.2015.x264.WEB-DRip.(AVC).ExKinoRay.mkv
    Формат : Matroska
    Версия формата : Version 2
    Размер файла : 1,87 Гбайт
    Продолжительность : 2 ч. 2 м.
    Общий поток : 2191 Кбит/сек
    Название фильма : Ма Ма.2015.Rip by: ollan
    Дата кодирования : UTC 2016-03-01 19:42:51
    Программа кодирования : mkvmerge v5.6.0 ('Kenya Kane') built on May 27 2012 16:44:04
    Библиотека кодирования : libebml v1.2.3 + libmatroska v1.3.0

    Видео
    Идентификатор : 1
    Формат : AVC
    Формат/Информация : Advanced Video Codec
    Профиль формата : High@L4.1
    Параметр CABAC формата : Да
    Параметр ReFrames формата : 10 кадров
    Идентификатор кодека : V_MPEG4/ISO/AVC
    Продолжительность : 2 ч. 2 м.
    Битрейт : 1613 Кбит/сек
    Ширина : 1024 пикселя
    Высота : 426 пикселей
    Соотношение сторон : 2,40:1
    Режим частоты кадров : Постоянный
    Частота кадров : 24,000 кадра/сек
    Цветовое пространство : YUV
    Субдискретизация насыщенности : 4:2:0
    Битовая глубина : 8 бит
    Тип развёртки : Прогрессивная
    Бит/(Пиксели*Кадры) : 0.154
    Размер потока : 1,34 Гбайт (72%)
    Библиотека кодирования : x264 core 146 r2538 121396c
    Настройки программы : cabac=1 / ref=10 / deblock=1:-3:-3 / analyse=0x3:0x133 / me=umh / subme=11 / psy=1 / psy_rd=1.00:0.05 / mixed_ref=1 / me_range=48 / chroma_me=1 / trellis=2 / 8x8dct=1 / cqm=0 / deadzone=21,11 / fast_pskip=0 / chroma_qp_offset=-3 / threads=12 / lookahead_threads=2 / sliced_threads=0 / nr=0 / decimate=0 / interlaced=0 / bluray_compat=0 / constrained_intra=0 / bframes=9 / b_pyramid=2 / b_adapt=2 / b_bias=0 / direct=3 / weightb=1 / open_gop=0 / weightp=2 / keyint=240 / keyint_min=23 / scenecut=40 / intra_refresh=0 / rc=2pass / mbtree=0 / bitrate=1613 / ratetol=1.0 / qcomp=0.60 / qpmin=0 / qpmax=69 / qpstep=4 / cplxblur=20.0 / qblur=0.5 / ip_ratio=1.40 / pb_ratio=1.30 / aq=1:1.00
    Язык : Spanish
    Default : Да
    Forced : Нет

    Аудио #1
    Идентификатор : 2
    Формат : AC-3
    Формат/Информация : Audio Coding 3
    Расширение режима : CM (complete main)
    Параметр Endianness формата : Big
    Идентификатор кодека : A_AC3
    Продолжительность : 2 ч. 2 м.
    Вид битрейта : Постоянный
    Битрейт : 192 Кбит/сек
    Каналы : 2 канала
    Расположение каналов : Front: L R
    Частота : 48,0 КГц
    Частота кадров : 31,250 кадров/сек (1536 spf)
    Метод сжатия : С потерями
    Размер потока : 168 Мбайт (9%)
    Заголовок : MVO (Мельница)
    Язык : Russian
    Default : Да
    Forced : Нет

    Аудио #2
    Идентификатор : 3
    Формат : AC-3
    Формат/Информация : Audio Coding 3
    Расширение режима : CM (complete main)
    Параметр Endianness формата : Big
    Идентификатор кодека : A_AC3
    Продолжительность : 2 ч. 2 м.
    Вид битрейта : Постоянный
    Битрейт : 384 Кбит/сек
    Каналы : 6 каналов
    Расположение каналов : Front: L C R, Side: L R, LFE
    Частота : 48,0 КГц
    Частота кадров : 31,250 кадров/сек (1536 spf)
    Метод сжатия : С потерями
    Размер потока : 336 Мбайт (18%)
    Язык : Spanish
    Default : Нет
    Forced : Нет

    Текст
    Идентификатор : 4
    Формат : UTF-8
    Идентификатор кодека : S_TEXT/UTF8
    Идентификатор кодека/Информация : UTF-8 Plain Text
    Заголовок : Full
    Язык : Russian
    Default : Нет
    Forced : Нет

    Меню
    00:00:00.000 : es:Chapter 1
    00:37:41.000 : es:Chapter 2
    01:20:29.000 : es:Chapter 3
    01:59:16.000 : es:Chapter 4

    x264 [info]: frame I:1929 Avg QP:13.84 size: 53303
    x264 [info]: frame P:47328 Avg QP:17.04 size: 17437
    x264 [info]: frame B:126927 Avg QP:18.80 size: 4348
    x264 [info]: consecutive B-frames: 2.9% 4.7% 5.2% 76.2% 4.8% 4.7% 0.7% 0.5% 0.1% 0.3%
    x264 [info]: mb I I16..4: 9.5% 70.0% 20.6%
    x264 [info]: mb P I16..4: 0.5% 6.9% 0.9% P16..4: 31.1% 36.6% 13.4% 2.1% 0.2% skip: 8.4%
    x264 [info]: mb B I16..4: 0.1% 0.6% 0.1% B16..8: 32.1% 18.1% 2.9% direct: 4.6% skip:41.6% L0:36.4% L1:49.0% BI:14.6%
    x264 [info]: 8x8 transform intra:79.3% inter:55.8%
    x264 [info]: direct mvs spatial:98.6% temporal:1.4%
    x264 [info]: coded y,uvDC,uvAC intra: 91.1% 82.1% 61.9% inter: 18.0% 19.0% 10.0%
    x264 [info]: i16 v,h,dc,p: 25% 11% 12% 52%
    x264 [info]: i8 v,h,dc,ddl,ddr,vr,hd,vl,hu: 13% 9% 9% 9% 11% 12% 11% 12% 13%
    x264 [info]: i4 v,h,dc,ddl,ddr,vr,hd,vl,hu: 18% 10% 5% 8% 13% 14% 11% 10% 10%
    x264 [info]: i8c dc,h,v,p: 39% 26% 20% 15%
    x264 [info]: Weighted P-Frames: Y:4.0% UV:1.7%
    x264 [info]: ref P L0: 57.4% 8.3% 13.5% 6.0% 4.5% 3.4% 2.7% 1.7% 1.4% 1.1% 0.1% 0.0%
    x264 [info]: ref B L0: 83.1% 9.4% 3.2% 1.5% 1.0% 0.8% 0.6% 0.3% 0.2%
    x264 [info]: ref B L1: 96.6% 3.4%
    x264 [info]: kb/s:1612.81
10.0 из 10
голосов: 1
/10
/10
7u7 3-03-2016, 22:10
Информация
Посетители, находящиеся в группе Гости, не могут оставлять комментарии к данной публикации.