Панель пользователя
Регистрация

Воспользуйтесь социальными сетями для входа на https://freerutor.com

vk odnoklassniki facebook mailru yandex google
Популярное
Счетчик
Голосуй за нас
VIP на сайте
Популярное
Товары интернет магазина
загрузка...

Месть от кутюр (2015) BDRip 720p | Лицензия

Месть от кутюр (2015) BDRip 720p | Лицензия
Участники торрент обмена
Сидов Пиров Скачали
1 0 297
Характеристика
Размер Файлы
5.82 GB
Поделиться раздачей
Фильмы (720,1080,Blu-Ray)
Наименование: Месть от кутюр
Оригинальное наименование: The Dressmaker
Произведено: Австралия
Категория: драма
Режиссер постановщик: Джослин Мурхаус
В главных ролях: Кейт Уинслет, Лиам Хемсворт, Сара Снук, Хьюго Уивинг, Кэролайн Гудолл, Джуди Дэвис, Керри Фокс, Ребекка Гибни, Шэйн Джейкобсон, Хейли Магнус
Краткое описание: Гламурная женщина возвращается в родной город, откуда уехала еще ребенком после обвинения в убийстве. Жители городка сначала не принимают ее, но постепенно она завоевывает расположение местных дам благодаря остроумию и умению кроить безупречные наряды.
  • Видео данные: MPEG-4 AVC, 5145 Кбит/с, 1280x538
    Аудио данные: Русский (AC3, 6 ch, 448 Кбит/с), (AC3, 6 ch, 640 Кбит/с), английский (AC3, 6 ch, 640 Кбит/с)
    Перевод: Дублированный [Лицензия] / Профессиональный многоголосый [FocusStudio]
    Субтитры: Русские, английские
    Продолжительность: 01:58:52
  • Месть от кутюр (2015) BDRip 720p | Лицензия Месть от кутюр (2015) BDRip 720p | Лицензия Месть от кутюр (2015) BDRip 720p | Лицензия
  • Общее
    Уникальный идентификатор : 187560540694812695706507617780212619047 (0x8D1AD89EA8F83D968451E2D82166D727)
    Полное имя : D:\загрузки\The.Dressmaker.2015.x264.BDRip720p.mkv
    Формат : Matroska
    Версия формата : Version 2
    Размер файла : 5,82 Гбайт
    Продолжительность : 1 ч. 58 м.
    Общий поток : 7011 Кбит/сек
    Дата кодирования : UTC 2016-09-13 22:20:38
    Программа кодирования : mkvmerge v7.8.0 ('River Man') 32bit built on Apr 3 2015 12:11:22
    Библиотека кодирования : libebml v1.3.1 + libmatroska v1.4.2

    Видео
    Идентификатор : 1
    Формат : AVC
    Формат/Информация : Advanced Video Codec
    Профиль формата : High@L4.1
    Параметр CABAC формата : Да
    Параметр ReFrames формата : 12 кадров
    Идентификатор кодека : V_MPEG4/ISO/AVC
    Продолжительность : 1 ч. 58 м.
    Битрейт : 5144 Кбит/сек
    Ширина : 1280 пикселей
    Высота : 538 пикселей
    Соотношение сторон : 2,40:1
    Режим частоты кадров : Постоянный
    Частота кадров : 23,976 кадра/сек
    Цветовое пространство : YUV
    Субдискретизация насыщенности : 4:2:0
    Битовая глубина : 8 бит
    Тип развёртки : Прогрессивная
    Бит/(Пиксели*Кадры) : 0.312
    Размер потока : 4,27 Гбайт (73%)
    Библиотека кодирования : x264 core 148 r2665 a01e339
    Настройки программы : cabac=1 / ref=12 / deblock=1:-3:-3 / analyse=0x3:0x133 / me=umh / subme=10 / psy=1 / psy_rd=1.00:0.00 / mixed_ref=1 / me_range=32 / chroma_me=1 / trellis=2 / 8x8dct=1 / cqm=0 / deadzone=21,11 / fast_pskip=0 / chroma_qp_offset=-2 / threads=6 / lookahead_threads=1 / sliced_threads=0 / nr=0 / decimate=0 / interlaced=0 / bluray_compat=0 / constrained_intra=0 / bframes=10 / b_pyramid=2 / b_adapt=2 / b_bias=0 / direct=3 / weightb=1 / open_gop=0 / weightp=2 / keyint=250 / keyint_min=24 / scenecut=40 / intra_refresh=0 / rc_lookahead=60 / rc=crf / mbtree=0 / crf=16.0 / qcomp=0.65 / qpmin=0 / qpmax=69 / qpstep=4 / vbv_maxrate=62500 / vbv_bufsize=78125 / crf_max=0.0 / nal_hrd=none / filler=0 / ip_ratio=1.32 / pb_ratio=1.23 / aq=3:0.73 / zones=765,1200,crf=14/2792,2908,crf=14/8362,8458,crf=14/17049,17123,crf=14/21505,22068,crf=14/4555,45633,crf=12/54636,54820,crf=13/80018,80585,crf=14/115186,115299,crf=13/115982,116082,crf=13/121192,121306,crf=12/163559,171008,crf=22
    Язык : English
    Default : Да
    Forced : Нет

    Аудио #1
    Идентификатор : 2
    Формат : AC-3
    Формат/Информация : Audio Coding 3
    Расширение режима : CM (complete main)
    Параметр Endianness формата : Big
    Идентификатор кодека : A_AC3
    Продолжительность : 1 ч. 58 м.
    Вид битрейта : Постоянный
    Битрейт : 448 Кбит/сек
    Каналы : 6 каналов
    Расположение каналов : Front: L C R, Side: L R, LFE
    Частота : 48,0 КГц
    Битовая глубина : 16 бит
    Метод сжатия : С потерями
    Размер потока : 381 Мбайт (6%)
    Заголовок : Лицензия BD
    Язык : Russian
    Default : Да
    Forced : Нет

    Аудио #2
    Идентификатор : 3
    Формат : AC-3
    Формат/Информация : Audio Coding 3
    Расширение режима : CM (complete main)
    Параметр Endianness формата : Big
    Идентификатор кодека : A_AC3
    Продолжительность : 1 ч. 58 м.
    Вид битрейта : Постоянный
    Битрейт : 640 Кбит/сек
    Каналы : 6 каналов
    Расположение каналов : Front: L C R, Side: L R, LFE
    Частота : 48,0 КГц
    Битовая глубина : 16 бит
    Метод сжатия : С потерями
    Размер потока : 544 Мбайт (9%)
    Заголовок : MVO FocusStudio
    Язык : Russian
    Default : Нет
    Forced : Нет

    Аудио #3
    Идентификатор : 4
    Формат : AC-3
    Формат/Информация : Audio Coding 3
    Расширение режима : CM (complete main)
    Параметр Endianness формата : Big
    Идентификатор кодека : A_AC3
    Продолжительность : 1 ч. 58 м.
    Вид битрейта : Постоянный
    Битрейт : 640 Кбит/сек
    Каналы : 6 каналов
    Расположение каналов : Front: L C R, Side: L R, LFE
    Частота : 48,0 КГц
    Битовая глубина : 16 бит
    Метод сжатия : С потерями
    Размер потока : 544 Мбайт (9%)
    Язык : English
    Default : Нет
    Forced : Нет

    Текст #1
    Идентификатор : 5
    Формат : UTF-8
    Идентификатор кодека : S_TEXT/UTF8
    Идентификатор кодека/Информация : UTF-8 Plain Text
    Заголовок : full FocusStudio
    Язык : Russian
    Default : Нет
    Forced : Нет

    Текст #2
    Идентификатор : 6
    Формат : UTF-8
    Идентификатор кодека : S_TEXT/UTF8
    Идентификатор кодека/Информация : UTF-8 Plain Text
    Заголовок : full
    Язык : English
    Default : Нет
    Forced : Нет

    Текст #3
    Идентификатор : 7
    Формат : UTF-8
    Идентификатор кодека : S_TEXT/UTF8
    Идентификатор кодека/Информация : UTF-8 Plain Text
    Заголовок : SDH
    Язык : English
    Default : Нет
    Forced : Нет

    Меню
    00:00:00.000 : en:Chapter 01
    00:05:35.931 : en:Chapter 02
    00:13:28.778 : en:Chapter 03
    00:19:39.232 : en:Chapter 04
    00:24:20.221 : en:Chapter 05
    00:29:59.518 : en:Chapter 06
    00:36:00.462 : en:Chapter 07
    00:43:53.059 : en:Chapter 08
    00:49:12.170 : en:Chapter 09
    00:55:21.831 : en:Chapter 10
    01:04:09.483 : en:Chapter 11
    01:13:10.315 : en:Chapter 12
    01:21:49.625 : en:Chapter 13
    01:28:28.315 : en:Chapter 14
    01:35:43.375 : en:Chapter 15
    01:42:55.098 : en:Chapter 16
    01:46:32.231 : en:Chapter 17
    01:54:04.391 : en:Chapter 18

5.5 из 10
голосов: 6
/10
/10
karta 14-09-2016, 01:28
Информация
Посетители, находящиеся в группе Гости, не могут оставлять комментарии к данной публикации.