Панель пользователя
Регистрация

Воспользуйтесь социальными сетями для входа на https://freerutor.com

vk odnoklassniki facebook mailru yandex google
Популярное
Счетчик
Голосуй за нас
VIP на сайте
Популярное
Товары интернет магазина
загрузка...

Ночь в старой Мексике / A Night in Old Mexico (2013) BDRip 1080p | Живов

Ночь в старой Мексике / A Night in Old Mexico (2013) BDRip 1080p | Живов
Участники торрент обмена
Сидов Пиров Скачали
0 0 40
Характеристика
Размер Файлы
9.01 GB
Поделиться раздачей
Фильмы (720,1080,Blu-Ray)
Наименование: Ночь в старой Мексике
Оригинальное наименование: A Night in Old Mexico
Категория: Драма, приключения
Произведено: Испания, США / Flywheel & Shyster, Globomedia Cine, ICAA, Maxmedia LLC
Режиссер постановщик: Эмилио Арагон
В главных ролях: Роберт Дювалл, Джереми Ирвин, Энджи Сепеда, Луис Тосар, Хоакин Косио, Хавьер Гутьеррес, Рене Ри, Джим Пэррак, Джеймс Хеберт, Майкл Рэй Эскамиллья
Краткое описание: Вынужденный отказаться от своего ранчо и земли Ред Боуви, вместо того чтобы остепениться на старости лет, прыгает в свой Кадиллак и мчится в Мексику вместе со своим внуком Галли, которого он только что повстречал…
  • Видео данные: MPEG-4 AVC, 11500 Кбит/с, 1920x808
    Аудио данные: Русский, английский (АС3, 6 ch, 448 Кбит/с)
    Перевод: Авторский [Ю. Живов]
    Субтитры: Английские, португальские, французские, испанские
    Продолжительность: 01:44:01
  • Ночь в старой Мексике / A Night in Old Mexico (2013) BDRip 1080p | Живов Ночь в старой Мексике / A Night in Old Mexico (2013) BDRip 1080p | Живов Ночь в старой Мексике / A Night in Old Mexico (2013) BDRip 1080p | Живов
  • Общее
    Уникальный идентификатор : 246477697128521416217884374694772427155 (0xB96DE0B460A5F9B896E799C6FB054993)
    Полное имя : A.Night.in.Old.Mexico.2013.BDRip.1080p-ylnian.mkv
    Формат : Matroska
    Версия формата : Version 4 / Version 2
    Размер файла : 9,01 Гбайт
    Продолжительность : 1 ч. 44 м.
    Общий поток : 12,4 Мбит/сек
    Название фильма : A.Night.in.Old.Mexico.2013.BDRip.1080p-ylnian
    Дата кодирования : UTC 2016-02-20 07:48:14
    Программа кодирования : mkvmerge v8.3.0 ('Over the Horizon') 64bit
    Библиотека кодирования : libebml v1.3.1 + libmatroska v1.4.2

    Видео
    Идентификатор : 1
    Формат : AVC
    Формат/Информация : Advanced Video Codec
    Профиль формата : High@L4.1
    Параметр CABAC формата : Да
    Параметр ReFrames формата : 4 кадра
    Идентификатор кодека : V_MPEG4/ISO/AVC
    Продолжительность : 1 ч. 44 м.
    Битрейт : 11,5 Мбит/сек
    Ширина : 1920 пикселей
    Высота : 808 пикселей
    Соотношение сторон : 2,40:1
    Режим частоты кадров : Постоянный
    Частота кадров : 23,976 кадра/сек
    Цветовое пространство : YUV
    Субдискретизация насыщенности : 4:2:0
    Битовая глубина : 8 бит
    Тип развёртки : Прогрессивная
    Бит/(Пиксели*Кадры) : 0.309
    Размер потока : 8,18 Гбайт (91%)
    Заголовок : A.Night.in.Old.Mexico.2013.BDRip.1080p-ylnian
    Библиотека кодирования : x264 core 148 r2638 7599210
    Настройки программы : cabac=1 / ref=4 / deblock=1:-3:-3 / analyse=0x3:0x133 / me=umh / subme=11 / psy=1 / psy_rd=1.05:0.15 / mixed_ref=1 / me_range=48 / chroma_me=1 / trellis=2 / 8x8dct=1 / cqm=0 / deadzone=21,11 / fast_pskip=1 / chroma_qp_offset=-5 / threads=12 / lookahead_threads=3 / sliced_threads=0 / nr=0 / decimate=1 / interlaced=0 / bluray_compat=0 / constrained_intra=0 / bframes=10 / b_pyramid=2 / b_adapt=2 / b_bias=0 / direct=2 / weightb=1 / open_gop=0 / weightp=1 / keyint=240 / keyint_min=1 / scenecut=40 / intra_refresh=0 / rc_lookahead=140 / rc=2pass / mbtree=1 / bitrate=11500 / ratetol=1.0 / qcomp=0.65 / qpmin=0 / qpmax=69 / qpstep=4 / cplxblur=20.0 / qblur=0.5 / vbv_maxrate=62500 / vbv_bufsize=78125 / nal_hrd=none / filler=0 / ip_ratio=1.40 / aq=2:1.00
    Язык : English
    Default : Да
    Forced : Да

    Аудио #1
    Идентификатор : 2
    Формат : AC-3
    Формат/Информация : Audio Coding 3
    Расширение режима : CM (complete main)
    Параметр Endianness формата : Big
    Идентификатор кодека : A_AC3
    Продолжительность : 1 ч. 44 м.
    Вид битрейта : Постоянный
    Битрейт : 448 Кбит/сек
    Каналы : 6 каналов
    Расположение каналов : Front: L C R, Side: L R, LFE
    Частота : 48,0 КГц
    Метод сжатия : С потерями
    Размер потока : 333 Мбайт (4%)
    Заголовок : AVO (AC3 5.1 448 kbps)
    Язык : Russian
    Default : Да
    Forced : Да

    Аудио #2
    Идентификатор : 3
    Формат : AC-3
    Формат/Информация : Audio Coding 3
    Расширение режима : CM (complete main)
    Параметр Endianness формата : Big
    Идентификатор кодека : A_AC3
    Продолжительность : 1 ч. 44 м.
    Вид битрейта : Постоянный
    Битрейт : 448 Кбит/сек
    Каналы : 6 каналов
    Расположение каналов : Front: L C R, Side: L R, LFE
    Частота : 48,0 КГц
    Метод сжатия : С потерями
    Размер потока : 333 Мбайт (4%)
    Заголовок : AC3 5.1 448 kbps
    Язык : English
    Default : Нет
    Forced : Нет

    Текст #1
    Идентификатор : 4
    Формат : UTF-8
    Идентификатор кодека : S_TEXT/UTF8
    Идентификатор кодека/Информация : UTF-8 Plain Text
    Язык : English
    Default : Нет
    Forced : Нет

    Текст #2
    Идентификатор : 5
    Формат : UTF-8
    Идентификатор кодека : S_TEXT/UTF8
    Идентификатор кодека/Информация : UTF-8 Plain Text
    Язык : French
    Default : Нет
    Forced : Нет

    Текст #3
    Идентификатор : 6
    Формат : UTF-8
    Идентификатор кодека : S_TEXT/UTF8
    Идентификатор кодека/Информация : UTF-8 Plain Text
    Язык : Portuguese
    Default : Нет
    Forced : Нет

    Текст #4
    Идентификатор : 7
    Формат : UTF-8
    Идентификатор кодека : S_TEXT/UTF8
    Идентификатор кодека/Информация : UTF-8 Plain Text
    Язык : Spanish
    Default : Нет
    Forced : Нет

    Меню
    00:00:00.000 : en:00:00:00.000
    00:05:51.810 : en:00:05:51.810
    00:12:36.172 : en:00:12:36.172
    00:20:12.753 : en:00:20:12.753
    00:27:27.521 : en:00:27:27.521
    00:36:11.878 : en:00:36:11.878
    00:41:32.532 : en:00:41:32.532
    00:48:08.385 : en:00:48:08.385
    00:56:02.693 : en:00:56:02.693
    01:03:38.189 : en:01:03:38.189
    01:10:50.913 : en:01:10:50.913
    01:17:58.716 : en:01:17:58.716
    01:24:51.086 : en:01:24:51.086
    01:28:31.640 : en:01:28:31.640
    01:33:05.580 : en:01:33:05.580
    01:38:27.860 : en:01:38:27.860
10.0 из 10
голосов: 2
/10
/10
grab777 20-02-2016, 14:26
Информация
Посетители, находящиеся в группе Гости, не могут оставлять комментарии к данной публикации.