Панель пользователя
Регистрация

Воспользуйтесь социальными сетями для входа на https://freerutor.com

vk odnoklassniki facebook mailru yandex google
Популярное
Счетчик
Голосуй за нас
VIP на сайте
Популярное
Товары интернет магазина
загрузка...

Великий тигр (2015) WEB-DL 1080p

Великий тигр (2015) WEB-DL 1080p
Участники торрент обмена
Сидов Пиров Скачали
7 0 3156
Характеристика
Размер Файлы
7.88 GB
Поделиться раздачей
Фильмы (720,1080,Blu-Ray)
Наименование: Великий тигр
Оригинальное наименование: Daeho / The Tiger
Категория: Боевик, триллер, приключения, история
Произведено: Корея Южная / Next Entertainment World
Режиссер постановщик: Пак Хун Чжон
В главных ролях: Чхве Мин Сик, Чон Ман Сик, Хон-Фа Ким, Ким Сан Хо, Юнь Ву Ли, Ра Ми Ран, Хьюн Сын-мин, Ю-Бин Сун, Рен Осуги
Краткое описание: 1925 год, времена японской оккупации в Корее. Любитель тигриных шкур, японский военный министр, приказывает схватить свирепого "Короля всех тигров Кореи". Понимая всю опасность задания, охотники обращаются к бывшему товарищу, некогда величайшему охотнику страны. Тот отказывается помочь, однако его сын, после ссоры с отцом, вступает в ряды охотников...
  • Видео данные: MPEG-4 AVC, 7702 Кбит/с, 1920x1080
    Аудио данные: AC3, 2 ch, 192 Кбит/с
    Перевод: Любительское двухголосое (den904&DeadSno)
    Продолжительность: 02:19:54
  • Великий тигр (2015) WEB-DL 1080p Великий тигр (2015) WEB-DL 1080p Великий тигр (2015) WEB-DL 1080p
  • General
    Unique ID : 226970861539490313200025781256288631861 (0xAAC0FF74AF7406FA9DFB972258B27C35)
    Complete name : The.Tiger.An.Old.Hunter's.Tale.2015.1080p.WEB-DL.H264.AAC-WEBHD-L.mkv
    Format : Matroska
    Format version : Version 4 / Version 2
    File size : 7.88 GiB
    Duration : 2h 19mn
    Overall bit rate : 8 062 Kbps
    Encoded date : UTC 2016-02-20 10:25:38
    Writing application : mkvmerge v8.8.0 ('Wind at my back') 64bit
    Writing library : libebml v1.3.3 + libmatroska v1.4.4

    Video
    ID : 1
    Format : AVC
    Format/Info : Advanced Video Codec
    Format profile : Baseline@L4
    Format settings, CABAC : No
    Format settings, ReFrames : 1 frame
    Codec ID : V_MPEG4/ISO/AVC
    Duration : 2h 19mn
    Bit rate : 7 702 Kbps
    Width : 1 920 pixels
    Height : 1 080 pixels
    Display aspect ratio : 16:9
    Frame rate mode : Constant
    Frame rate : 23.976 fps
    Color space : YUV
    Chroma subsampling : 4:2:0
    Bit depth : 8 bits
    Scan type : Progressive
    Bits/(Pixel*Frame) : 0.155
    Stream size : 7.53 GiB (96%)
    Default : Yes
    Forced : No

    Audio #1
    ID : 2
    Format : AAC
    Format/Info : Advanced Audio Codec
    Format profile : LC
    Codec ID : A_AAC
    Duration : 2h 19mn
    Bit rate : 165 Kbps
    Channel(s) : 2 channels
    Channel positions : Front: L R
    Sampling rate : 48.0 KHz
    Frame rate : 46.875 fps (1024 spf)
    Compression mode : Lossy
    Stream size : 165 MiB (2%)
    Default : No
    Forced : No

    Audio #2
    ID : 3
    Format : AC-3
    Format/Info : Audio Coding 3
    Mode extension : CM (complete main)
    Format settings, Endianness : Big
    Codec ID : A_AC3
    Duration : 2h 19mn
    Bit rate mode : Constant
    Bit rate : 192 Kbps
    Channel(s) : 2 channels
    Channel positions : Front: L R
    Sampling rate : 48.0 KHz
    Frame rate : 31.250 fps (1536 spf)
    Compression mode : Lossy
    Stream size : 192 MiB (2%)
    Title : Любительский двухголосый
    Language : Russian
    Default : Yes
    Forced : Yes
7.3 из 10
голосов: 4
/10
/10
grab777 20-02-2016, 14:05
Информация
Посетители, находящиеся в группе Гости, не могут оставлять комментарии к данной публикации.