Панель пользователя
Регистрация

Воспользуйтесь социальными сетями для входа на https://freerutor.com

vk odnoklassniki facebook mailru yandex google
Популярное
Счетчик
Голосуй за нас
VIP на сайте
Популярное
Товары интернет магазина
загрузка...

Мёд в голове / Honig im Kopf (2014) BDRip 1080p

Мёд в голове / Honig im Kopf (2014) BDRip 1080p
Участники торрент обмена
Сидов Пиров Скачали
0 0 52
Характеристика
Размер Файлы
19.97 GB
Поделиться раздачей
Фильмы (720,1080,Blu-Ray)
Наименование: Мёд в Голове
Оригинальное наименование:
Категория: Honig im Kopf
Произведено: Германия / barefoot films, Seven Pictures, Warner Bros. GmbH
Режиссер постановщик: Тиль Швайгер
В главных ролях: Эмма Швайгер, Дитер Халлерворден, Тиль Швайгер, Паскуале Алеарди, Клаудио Кайоло, Дэна Цебулла, Самуэль Финци, Лиана Форестьери, Жанетт Хайн, Клаудия Михельсен
Краткое описание: История 11-летней Тильды, которая просто обожает своего дедушку Амандуса. Когда тому диагностируют болезнь Альцгеймера, а родители, по ее мнению, хотят избавиться от него, сдав в дом престарелых, она берет ситуацию в свои руки и сбегает вместе с дедом в сказочную Венецию. Город выбран неслучайно. Ведь почти полвека назад Амандус сделал там предложение руки и сердца бабушке Тильды. Теперь внучка надеется, что оказавшись там, деду станет лучше, и он хоть что-нибудь вспомнит.
  • Видео данные: MPEG-4 AVC, 17,5 Мбит/с, 1920x816
    Аудио данные: Русский немецкий (DTS, 6 ch, 1509 Кбит/с)
    Перевод: Профессиональное многоголосое [FocusStudio]
    Cубтитры: Русские
    Продолжительность: 02:19:04
  • Мёд в голове / Honig im Kopf (2014) BDRip 1080p Мёд в голове / Honig im Kopf (2014) BDRip 1080p Мёд в голове / Honig im Kopf (2014) BDRip 1080p
  • General
    Unique ID : 6303381371134245589987391033569332276 (0x4BDFCB226722B32DBCB421DD0824C34)
    Complete name : Honig.im.Kopf.2014.BDRip.1080p.FocusStudio.mkv
    Format : Matroska
    Format version : Version 4 / Version 2
    File size : 20.0 GiB
    Duration : 2h 19mn
    Overall bit rate : 20.6 Mbps
    Movie name : Honig im Kopf @ FocusStudio
    Encoded date : UTC 2016-02-18 14:57:45
    Writing application : mkvmerge v8.5.2 ('Crosses') 64bit
    Writing library : libebml v1.3.3 + libmatroska v1.4.4

    Video
    ID : 1
    Format : AVC
    Format/Info : Advanced Video Codec
    Format profile : High@L4.1
    Format settings, CABAC : Yes
    Format settings, ReFrames : 5 frames
    Codec ID : V_MPEG4/ISO/AVC
    Duration : 2h 19mn
    Bit rate : 17.1 Mbps
    Width : 1 920 pixels
    Height : 816 pixels
    Display aspect ratio : 2.35:1
    Frame rate : 23.976 fps
    Color space : YUV
    Chroma subsampling : 4:2:0
    Bit depth : 8 bits
    Scan type : Progressive
    Bits/(Pixel*Frame) : 0.456
    Stream size : 16.6 GiB (83%)
    Writing library : x264 core 148 r2638+53 bb29004 t_mod_Custom [8-bit@all X86_64]
    Encoding settings : cabac=1 / ref=5 / deblock=1:-3:-3 / analyse=0x3:0x113 / me=umh / subme=10 / psy=1 / fade_compensate=0.00 / psy_rd=1.04:0.00 / mixed_ref=1 / me_range=32 / chroma_me=1 / trellis=2 / 8x8dct=1 / cqm=0 / deadzone=21,11 / fast_pskip=0 / chroma_qp_offset=-2 / threads=24 / lookahead_threads=4 / sliced_threads=0 / nr=0 / decimate=0 / interlaced=0 / bluray_compat=0 / constrained_intra=0 / fgo=0 / bframes=8 / b_pyramid=2 / b_adapt=2 / b_bias=0 / direct=3 / weightb=1 / open_gop=0 / weightp=2 / keyint=240 / keyint_min=23 / scenecut=40 / intra_refresh=0 / rc_lookahead=60 / rc=crf / mbtree=0 / crf=19.4000 / qcomp=0.75 / qpmin=0:0:0 / qpmax=69:69:69 / qpstep=4 / vbv_maxrate=62500 / vbv_bufsize=78125 / crf_max=0.0 / nal_hrd=none / filler=0 / ip_ratio=1.30 / pb_ratio=1.20 / aq=3:0.80 / aq-sensitivity=10.00 / aq-factor=1.00:1.00:1.00 / aq2=1:0.60 / aq2-sensitivity=15.00 / aq2-factor=1.00:1.00:1.00 / aq3=1:[0.60:0.60]:[0.60:0.60]:[0.60:0.60]:[0.60:0.60] / aq3-sensitivity=10.00 / aq3-factor=[1.00:1.00]:[1.00:1.00]:[1.00:1.00] / aq3-boundary=192:64:24
    Language : German
    Default : Yes
    Forced : No

    Audio #1
    ID : 2
    Format : DTS
    Format/Info : Digital Theater Systems
    Codec ID : A_DTS
    Duration : 2h 19mn
    Bit rate mode : Constant
    Bit rate : 1 510 Kbps
    Channel(s) : 6 channels
    Channel positions : Front: L C R, Side: L R, LFE
    Sampling rate : 48.0 KHz
    Bit depth : 24 bits
    Compression mode : Lossy
    Stream size : 1.47 GiB (7%)
    Title : MVO FocusStudio
    Language : Russian
    Default : Yes
    Forced : No

    Audio #2
    ID : 3
    Format : DTS
    Format/Info : Digital Theater Systems
    Codec ID : A_DTS
    Duration : 2h 19mn
    Bit rate mode : Constant
    Bit rate : 1 510 Kbps
    Channel(s) : 6 channels
    Channel positions : Front: L C R, Side: L R, LFE
    Sampling rate : 48.0 KHz
    Bit depth : 24 bits
    Compression mode : Lossy
    Stream size : 1.47 GiB (7%)
    Language : German
    Default : No
    Forced : No

    Text #1
    ID : 4
    Format : ASS
    Codec ID : S_TEXT/ASS
    Codec ID/Info : Advanced Sub Station Alpha
    Compression mode : Lossless
    Title : Forced
    Language : Russian
    Default : Yes
    Forced : Yes

    Text #2
    ID : 5
    Format : UTF-8
    Codec ID : S_TEXT/UTF8
    Codec ID/Info : UTF-8 Plain Text
    Title : Full
    Language : Russian
    Default : No
    Forced : No

    Text #3
    ID : 6
    Format : UTF-8
    Codec ID : S_TEXT/UTF8
    Codec ID/Info : UTF-8 Plain Text
    Language : German
    Default : No
    Forced : No

    Menu
    00:00:00.000 : en:00:00:00.000
    00:09:46.252 : en:00:09:46.252
    00:22:47.741 : en:00:22:47.741
    00:33:07.694 : en:00:33:07.694
    00:44:47.768 : en:00:44:47.768
    01:00:13.360 : en:01:00:13.360
    01:09:56.234 : en:01:09:56.234
    01:22:16.807 : en:01:22:16.807
    01:33:15.548 : en:01:33:15.548
    01:45:02.546 : en:01:45:02.546
    01:55:08.610 : en:01:55:08.610
    02:08:33.497 : en:02:08:33.497
5.0 из 10
голосов: 1
/10
/10
grab777 20-02-2016, 06:43
Информация
Посетители, находящиеся в группе Гости, не могут оставлять комментарии к данной публикации.