Панель пользователя
Регистрация

Воспользуйтесь социальными сетями для входа на https://freerutor.com

vk odnoklassniki facebook mailru yandex google
Популярное
Счетчик
Голосуй за нас
VIP на сайте
Популярное
Товары интернет магазина
загрузка...

Новые приключения Аладдина / Les nouvelles aventures d'Aladin (2015) BDRip 1080p

Новые приключения Аладдина / Les nouvelles aventures d'Aladin (2015) BDRip 1080p
Участники торрент обмена
Сидов Пиров Скачали
3 0 2515
Характеристика
Размер Файлы
8.22 GB
Поделиться раздачей
Фильмы (720,1080,Blu-Ray)
Наименование: Новые приключения Аладдина
Оригинальное наименование: Les nouvelles aventures d'Aladin
Категория: Комедия
Произведено: Франция, Бельгия
Режиссер постановщик: Артур Бензакен
В главных ролях: Кев Адамс, Жан-Поль Рув, Ванесса Гуид, Уилльям Лебхил, Одри Лами, Артур Бензакен, Эрик Жюдор, Мишель Блан, Рамзи Бедиа,Надер Буссандель
Краткое описание: Думаете, вы знаете историю про Аладдина? Как бы не так, оказывается у этой истории еще много неизвестных страниц. Мы расскажем вам эту сказку совершенно по-новому, добро пожаловать в самое сердце Багдада — города тысячи сокровищ, где на улицах летают ковры-самолеты, колдуны предлагают зелья для омоложения, а в замке томится принцесса, которая иногда тайком выбирается в город, где как раз и орудует находчивый и предприимчивый воришка по имени Аладдин…
  • Видео данные: MPEG-4 AVC, 8984 Кбит/с, 1920x808
    Аудио данные: Русский (AC3, 6 ch, 640 Кбит/с), французский (DTS, 6 ch, 1509 Кбит/с)
    Перевод: Дублированный [Центральный канал line]
    Продолжительность: 01:45:45
    Примечание: Релиз без рекламы.
  • Новые приключения Аладдина / Les nouvelles aventures d'Aladin (2015) BDRip 1080p Новые приключения Аладдина / Les nouvelles aventures d'Aladin (2015) BDRip 1080p Новые приключения Аладдина / Les nouvelles aventures d'Aladin (2015) BDRip 1080p
  • Общее
    Уникальный идентификатор : 240422016327472919481868612106703741196 (0xB4DF9896F6611214ABD1BB08C6F2210C)
    Полное имя : K:Les nouvelles aventures.Aladin.BDRip 1080p.mkv
    Формат : Matroska
    Версия формата : Version 4 / Version 2
    Размер файла : 8,22 Гбайт
    Продолжительность : 1 ч. 45 м.
    Общий поток : 11,1 Мбит/сек
    Название фильма : Les nouvelles aventures.Aladin.BDRip 1080p
    Дата кодирования : UTC 2016-02-19 19:56:55
    Программа кодирования : mkvmerge v8.2.0 ('World of Adventure') 64bit
    Библиотека кодирования : libebml v1.3.1 + libmatroska v1.4.2

    Видео
    Идентификатор : 1
    Формат : AVC
    Формат/Информация : Advanced Video Codec
    Профиль формата : High@L4.1
    Параметр CABAC формата : Да
    Параметр ReFrames формата : 5 кадров
    Идентификатор кодека : V_MPEG4/ISO/AVC
    Продолжительность : 1 ч. 45 м.
    Битрейт : 8984 Кбит/сек
    Ширина : 1920 пикселей
    Высота : 808 пикселей
    Соотношение сторон : 2,40:1
    Режим частоты кадров : Постоянный
    Частота кадров : 24,000 кадра/сек
    Цветовое пространство : YUV
    Субдискретизация насыщенности : 4:2:0
    Битовая глубина : 8 бит
    Тип развёртки : Прогрессивная
    Бит/(Пиксели*Кадры) : 0.241
    Размер потока : 6,63 Гбайт (81%)
    Заголовок : Les nouvelles aventures.Aladin.BDRip 1080p
    Библиотека кодирования : x264 core 148 r2665 a01e339
    Настройки программы : cabac=1 / ref=5 / deblock=1:0:0 / analyse=0x3:0x113 / me=umh / subme=8 / psy=1 / psy_rd=1.00:0.00 / mixed_ref=1 / me_range=16 / chroma_me=1 / trellis=1 / 8x8dct=1 / cqm=0 / deadzone=21,11 / fast_pskip=1 / chroma_qp_offset=-2 / threads=12 / lookahead_threads=2 / sliced_threads=0 / nr=0 / decimate=1 / interlaced=0 / bluray_compat=0 / constrained_intra=0 / bframes=3 / b_pyramid=2 / b_adapt=2 / b_bias=0 / direct=3 / weightb=1 / open_gop=0 / weightp=2 / keyint=250 / keyint_min=24 / scenecut=40 / intra_refresh=0 / rc_lookahead=50 / rc=2pass / mbtree=1 / bitrate=8984 / ratetol=1.0 / qcomp=0.60 / qpmin=0 / qpmax=69 / qpstep=4 / cplxblur=20.0 / qblur=0.5 / ip_ratio=1.40 / aq=1:1.00
    Язык : French
    Default : Да
    Forced : Нет

    Аудио #1
    Идентификатор : 2
    Формат : AC-3
    Формат/Информация : Audio Coding 3
    Расширение режима : CM (complete main)
    Параметр Endianness формата : Big
    Идентификатор кодека : A_AC3
    Продолжительность : 1 ч. 45 м.
    Вид битрейта : Постоянный
    Битрейт : 640 Кбит/сек
    Каналы : 6 каналов
    Расположение каналов : Front: L C R, Side: L R, LFE
    Частота : 48,0 КГц
    Метод сжатия : С потерями
    Размер потока : 484 Мбайт (6%)
    Язык : Russian
    Default : Да
    Forced : Нет

    Аудио #2
    Идентификатор : 3
    Формат : DTS
    Формат/Информация : Digital Theater Systems
    Режим : 16
    Параметр Endianness формата : Big
    Идентификатор кодека : A_DTS
    Продолжительность : 1 ч. 45 м.
    Вид битрейта : Постоянный
    Битрейт : 1509 Кбит/сек
    Каналы : 6 каналов
    Расположение каналов : Front: L C R, Side: L R, LFE
    Частота : 48,0 КГц
    Битовая глубина : 24 бит
    Метод сжатия : С потерями
    Размер потока : 1,11 Гбайт (14%)
    Язык : French
    Default : Нет
    Forced : Нет

    Меню
    00:00:00.000 : en:00:00:00.000
    00:07:02.542 : en:00:07:02.542
    00:12:41.750 : en:00:12:41.750
    00:21:19.292 : en:00:21:19.292
    00:26:46.708 : en:00:26:46.708
    00:36:44.000 : en:00:36:44.000
    00:40:41.333 : en:00:40:41.333
    00:45:36.667 : en:00:45:36.667
    00:49:55.042 : en:00:49:55.042
    00:55:58.750 : en:00:55:58.750
    01:04:55.208 : en:01:04:55.208
    01:07:54.458 : en:01:07:54.458
    01:17:07.833 : en:01:17:07.833
    01:22:01.625 : en:01:22:01.625
    01:32:15.625 : en:01:32:15.625
    01:41:03.125 : en:01:41:03.125
6.9 из 10
голосов: 12
/10
/10
Раздачу отредактировал: grab777 - 20-02-2016, 09:14
По причине: (Замена 2 ch на 6 ch)
foster720p 20-02-2016, 07:11

qzew | 18-03-2016, 20:26 | Статус: Оффлайн

ссылку !!!!!!!!!!!!!!!!!!!!!

qzew | 7-03-2016, 18:47 | Статус: Оффлайн

как скачать дайте ссылку
Информация
Посетители, находящиеся в группе Гости, не могут оставлять комментарии к данной публикации.