Панель пользователя
Регистрация

Воспользуйтесь социальными сетями для входа на https://freerutor.com

vk odnoklassniki facebook mailru yandex google
Популярное
Счетчик
Голосуй за нас
VIP на сайте
Популярное
Товары интернет магазина
загрузка...

Контакт / The Encounter (2015) HDRip-AVC

Контакт / The Encounter (2015) HDRip-AVC
Участники торрент обмена
Сидов Пиров Скачали
13 1 10302
Характеристика
Размер Файлы
1.70 GB
Релиз группа
Поделиться раздачей
Фильмы (AVC)
Наименование: Контакт
Оригинальное наименование: The Encounter
Категория: Ужасы, фантастика
Произведено: США / FunHouse Features
Режиссер постановщик: Роберт Конуэй
В главных ролях: Клинт Джеймс, Оуэн Конуэй, Меган Драст, Элиза Кишш, Полина Валлен, Луи Иаккарино, Дэн Хиггинс, Моника Энгессер, Пэт Кэй
Краткое описание: Рядом с городом в лесу упал метеорит. Окружающие даже не представляют какие ужасные события развернутся уже скоро...
  • Видео данные: MPEG-4 AVC, 2388 Кбит/с, 1024x576
    Аудио данные: Русский (AC3, 2 ch, 256 Кбит/c), английский (AC3, 6 ch, 384 Кбит/c)
    Перевод: Любительский одноголосый [Васька Куролесов]
    Субтитры: Английские
    Продолжительность: 01:20:13
  • Контакт / The Encounter (2015) HDRip-AVC Контакт / The Encounter (2015) HDRip-AVC Контакт / The Encounter (2015) HDRip-AVC
  • General
    Unique ID : 244425979908970786493893733924858211720 (0xB7E2BB3C54107DA5AEB779DB87B7AD88)
    Complete name : C:The.Encounter.2015.L1.HDRip.AVC.ExKinoRay.mkv
    Format : Matroska
    Format version : Version 4 / Version 2
    File size : 1.70 GiB
    Duration : 1h 20mn
    Overall bit rate : 3 027 Kbps
    Movie name : The Encounter 2015 from ExKinoRay
    Encoded date : UTC 2016-02-16 21:09:43
    Writing application : mkvmerge v6.6.0 ('The Edge Of The In Between') built on Dec 1 2013 17:55:00
    Writing library : libebml v1.3.0 + libmatroska v1.4.1

    Video
    ID : 1
    Format : AVC
    Format/Info : Advanced Video Codec
    Format profile : High@L4.1
    Format settings, CABAC : Yes
    Format settings, ReFrames : 11 frames
    Codec ID : V_MPEG4/ISO/AVC
    Duration : 1h 20mn
    Bit rate : 2 388 Kbps
    Width : 1 024 pixels
    Height : 576 pixels
    Display aspect ratio : 16:9
    Frame rate mode : Constant
    Frame rate : 23.976 fps
    Color space : YUV
    Chroma subsampling : 4:2:0
    Bit depth : 8 bits
    Scan type : Progressive
    Bits/(Pixel*Frame) : 0.169
    Stream size : 1.30 GiB (77%)
    Title : Enigma
    Writing library : x264 core 133 r2334 a3ac64b
    Encoding settings : cabac=1 / ref=11 / deblock=1:-2:-2 / analyse=0x3:0x113 / me=umh / subme=10 / psy=1 / psy_rd=1.05:0.15 / mixed_ref=1 / me_range=32 / chroma_me=1 / trellis=2 / 8x8dct=1 / cqm=0 / deadzone=21,11 / fast_pskip=0 / chroma_qp_offset=-3 / threads=12 / lookahead_threads=3 / sliced_threads=0 / nr=0 / decimate=0 / interlaced=0 / bluray_compat=0 / constrained_intra=0 / bframes=10 / b_pyramid=2 / b_adapt=2 / b_bias=0 / direct=3 / weightb=1 / open_gop=0 / weightp=2 / keyint=240 / keyint_min=23 / scenecut=40 / intra_refresh=0 / rc_lookahead=40 / rc=2pass / mbtree=0 / bitrate=2388 / ratetol=1.0 / qcomp=0.65 / qpmin=0 / qpmax=51 / qpstep=4 / cplxblur=20.0 / qblur=0.5 / vbv_maxrate=50000 / vbv_bufsize=62500 / nal_hrd=none / ip_ratio=1.40 / pb_ratio=1.30 / aq=1:1.00
    Language : English
    Default : Yes
    Forced : No
    Color primaries : BT.709
    Transfer characteristics : BT.709
    Matrix coefficients : BT.709

    Audio #1
    ID : 2
    Format : AC-3
    Format/Info : Audio Coding 3
    Mode extension : CM (complete main)
    Format settings, Endianness : Big
    Codec ID : A_AC3
    Duration : 1h 20mn
    Bit rate mode : Constant
    Bit rate : 256 Kbps
    Channel(s) : 2 channels
    Channel positions : Front: L R
    Sampling rate : 48.0 KHz
    Bit depth : 16 bits
    Compression mode : Lossy
    Stream size : 147 MiB (8%)
    Title : VO (Куролесов)
    Language : Russian
    Default : Yes
    Forced : No

    Audio #2
    ID : 3
    Format : AC-3
    Format/Info : Audio Coding 3
    Mode extension : CM (complete main)
    Format settings, Endianness : Big
    Codec ID : A_AC3
    Duration : 1h 20mn
    Bit rate mode : Constant
    Bit rate : 384 Kbps
    Channel(s) : 6 channels
    Channel positions : Front: L C R, Side: L R, LFE
    Sampling rate : 48.0 KHz
    Bit depth : 16 bits
    Compression mode : Lossy
    Stream size : 220 MiB (13%)
    Language : English
    Default : No
    Forced : No

    Text
    ID : 4
    Format : UTF-8
    Codec ID : S_TEXT/UTF8
    Codec ID/Info : UTF-8 Plain Text
    Language : English
    Default : No
    Forced : No

    Menu
    00:00:00.000 : en:00:00:00.000
    00:05:17.859 : en:00:05:17.859
    00:11:40.074 : en:00:11:40.074
    00:17:01.854 : en:00:17:01.854
    00:23:30.367 : en:00:23:30.367
    00:30:44.634 : en:00:30:44.634
    00:38:21.758 : en:00:38:21.758
    00:46:41.298 : en:00:46:41.298
    00:55:30.285 : en:00:55:30.285
    01:02:22.739 : en:01:02:22.739
    01:09:05.141 : en:01:09:05.141
    01:16:42.723 : en:01:16:42.723
4.0 из 10
голосов: 1
/10
/10
grab777 17-02-2016, 02:12
Информация
Посетители, находящиеся в группе Гости, не могут оставлять комментарии к данной публикации.