Панель пользователя
Регистрация

Воспользуйтесь социальными сетями для входа на https://freerutor.com

vk odnoklassniki facebook mailru yandex google
Популярное
Счетчик
Голосуй за нас
VIP на сайте
Популярное
Товары интернет магазина
загрузка...

Любовь в розыске / Влюбить и обезвредить (2015) WEB-DL 1080p

Любовь в розыске / Влюбить и обезвредить (2015) WEB-DL 1080p
Участники торрент обмена
Сидов Пиров Скачали
12 0 2789
Характеристика
Размер Файлы
3.93 GB
Релиз группа
Поделиться раздачей
Фильмы (720,1080,Blu-Ray)
Наименование: Любовь в розыске / Влюбить и обезвредить
Категория: Комедия
Произведено: Россия / Маурис Филм
Режиссер постановщик: Анарио Мамедов
В главных ролях: Анастасия Панина, Роман Полянский, Максим Битюков, Анна Пескова, Вадим Андреев, Андрей Бутин, Юлия Жигалина, Вячеслав Хархота, Юлия Подозерова
Краткое описание: Отчаявшись устроить личное счастье сотрудник полиции Анна в шутку составляет фоторобот мужчины своей мечты. По ошибке изображение попадает в базу розыска преступников и теперь все уверены, что именно так выглядит загадочный вор, которого боятся во всех ювелирных города. Безобидный программист Саша, поразительно похожий на фантазию Анны, приходит в магазин за обручальными кольцами для своей свадьбы и тут же оказывается в наручниках. В полиции быстро выясняют правду, но решают до поры до времени скрыть ее от Саши. Анне поручают присматривать за парнем, чтобы «на живца» поймать не только настоящего вора, но и опасных бандитов, гоняющихся за ним. Вот только хладнокровно следовать профессиональному долгу, сутками находясь рядом с самым желанным мужчиной, оказывается совсем непросто.
  • Видео данные: MPEG-4 AVC, 4856 Кбит/с, 1920x1014
    Аудио данные: AC3, 2 ch, 192 Кбит/с
    Перевод: Оригинал (русский)
    Продолжительность: 01:49:18
  • Любовь в розыске / Влюбить и обезвредить (2015) WEB-DL 1080p Любовь в розыске / Влюбить и обезвредить (2015) WEB-DL 1080p Любовь в розыске / Влюбить и обезвредить (2015) WEB-DL 1080p
  • Общее
    Уникальный идентификатор : 253379273612259058862743273893729867621 (0xBE9F12B2560DA6498004CADDEC8F1765)
    Полное имя : :\\FLL_N_LV_NTRLZ_2015_WEB-DL_1080P -BLUEBIRD.mkv
    Формат : Matroska
    Версия формата : Version 4 / Version 2
    Размер файла : 3,93 Гбайт
    Продолжительность : 1 ч. 49 м.
    Общий поток : 5151 Кбит/сек
    Название фильма : Влюбить и обезвредить (2015) [BLUEBIRD]
    Дата кодирования : UTC 2016-02-15 18:46:01
    Программа кодирования : mkvmerge v7.1.0 ('Good Love') 64bit built on Jul 27 2014 13:06:55
    Библиотека кодирования : libebml v1.3.0 + libmatroska v1.4.1
    DURATION : 01:49:18.784000000
    NUMBER_OF_FRAMES : 204962
    NUMBER_OF_BYTES : 157410816
    _STATISTICS_WRITING_APP : mkvmerge v7.1.0 ('Good Love') 64bit built on Jul 27 2014 13:06:55
    _STATISTICS_WRITING_DATE_UTC : 2016-02-15 18:46:01
    _STATISTICS_TAGS : BPS DURATION NUMBER_OF_FRAMES NUMBER_OF_BYTES

    Видео
    Идентификатор : 1
    Формат : AVC
    Формат/Информация : Advanced Video Codec
    Профиль формата : High@L4
    Параметр CABAC формата : Да
    Параметр ReFrames формата : 4 кадра
    Идентификатор кодека : V_MPEG4/ISO/AVC
    Продолжительность : 1 ч. 49 м.
    Битрейт : 4856 Кбит/сек
    Ширина : 1920 пикселей
    Высота : 1014 пикселей
    Соотношение сторон : 1,893
    Режим частоты кадров : Постоянный
    Частота кадров : 25,000 кадров/сек
    Цветовое пространство : YUV
    Субдискретизация насыщенности : 4:2:0
    Битовая глубина : 8 бит
    Тип развёртки : Прогрессивная
    Бит/(Пиксели*Кадры) : 0.100
    Размер потока : 3,71 Гбайт (94%)
    Заголовок : FLL_N_LV_NTRLZ_2015_WEB-DL_1080P -BLUEBIRD
    Язык : Russian
    Default : Да
    Forced : Нет
    Цветовой диапазон : Limited
    Основные цвета : BT.709
    Характеристики трансфера : BT.709
    Коэффициенты матрицы : BT.709

    Аудио
    Идентификатор : 2
    Формат : AC-3
    Формат/Информация : Audio Coding 3
    Расширение режима : CM (complete main)
    Параметр Endianness формата : Big
    Идентификатор кодека : A_AC3
    Продолжительность : 1 ч. 49 м.
    Вид битрейта : Постоянный
    Битрейт : 192 Кбит/сек
    Каналы : 2 канала
    Расположение каналов : Front: L R
    Частота : 48,0 КГц
    Метод сжатия : С потерями
    Размер потока : 150 Мбайт (4%)
    Заголовок : iTUNES
    Язык : Russian
    Default : Да
    Forced : Нет

    Меню
    00:00:00.000 : en:Chapter 01
    00:05:02.000 : en:Chapter 02
    00:10:15.000 : en:Chapter 03
    00:15:55.000 : en:Chapter 04
    00:22:11.000 : en:Chapter 05
    00:27:52.000 : en:Chapter 06
    00:32:35.000 : en:Chapter 07
    00:38:04.000 : en:Chapter 08
    00:42:13.000 : en:Chapter 09
    00:49:27.000 : en:Chapter 10
    00:55:07.000 : en:Chapter 11
    01:02:06.000 : en:Chapter 12
    01:09:29.000 : en:Chapter 13
    01:14:05.000 : en:Chapter 14
    01:19:56.000 : en:Chapter 15
    01:25:16.000 : en:Chapter 16
    01:30:04.000 : en:Chapter 17
    01:37:01.000 : en:Chapter 18
    01:44:08.000 : en:Chapter 19
6.7 из 10
голосов: 7
/10
/10
grab777 16-02-2016, 07:09
Информация
Посетители, находящиеся в группе Гости, не могут оставлять комментарии к данной публикации.