Панель пользователя
Регистрация

Воспользуйтесь социальными сетями для входа на https://freerutor.com

vk odnoklassniki facebook mailru yandex google
Популярное
Счетчик
Голосуй за нас
VIP на сайте
Популярное
Товары интернет магазина
загрузка...

#Хоррор / #Horror (2015) WEB-DL 720p

#Хоррор / #Horror (2015) WEB-DL 720p
Участники торрент обмена
Сидов Пиров Скачали
0 0 323
Характеристика
Размер Файлы
3.10 GB
Поделиться раздачей
Фильмы (720,1080,Blu-Ray)
Наименование: #Хоррор
Оригинальное наименование: #Horror
Категория: Ужасы, триллер, драма, детектив
Произведено: США / AST Studios, Lowland Pictures
Режиссер постановщик: Тара Сабкофф
В главных ролях: Хлоя Севиньи, Тимоти Хаттон, Бальтазар Гетти, Стелла Шнабель, Sadie Seelert, Хейли Мерфи, Бриджет МакГарри, Блу Линдеберг, Мина Сандвол, Эмма Адлер
Краткое описание: Для группы 12-летних девочек пристрастие к онлайн-играм в социальных сетях оборачивается ночью безумия…
  • Видео данные: MPEG-4 AVC, 3862 Кбит/с, 1280x528
    Аудио данные: Русский (AC3, 2 ch, 192 Кбит/с), английский (AC3, 6 ch, 384 Кбит/с)
    Перевод: Любительское одноголосое [xixidok]
    Субтитры: Английские
    Продолжительность: 01:37:53
  • #Хоррор / #Horror (2015) WEB-DL 720p #Хоррор / #Horror (2015) WEB-DL 720p #Хоррор / #Horror (2015) WEB-DL 720p
  • Format : Matroska
    Format version : Version 2
    File size : 3.10 GiB
    Duration : 1h 37mn
    Overall bit rate : 4 528 Kbps
    Encoded date : UTC 2016-02-15 16:37:46
    Writing application : mkvmerge v7.8.0 ('River Man') 32bit built on Apr 3 2015 12:11:22
    Writing library : libebml v1.3.1 + libmatroska v1.4.2

    Video
    ID : 1
    Format : AVC
    Format/Info : Advanced Video Codec
    Format profile : Main@L3.1
    Format settings, CABAC : No
    Format settings, ReFrames : 2 frames
    Codec ID : V_MPEG4/ISO/AVC
    Duration : 1h 37mn
    Bit rate : 3 862 Kbps
    Width : 1 280 pixels
    Height : 528 pixels
    Display aspect ratio : 2.40:1
    Frame rate mode : Constant
    Frame rate : 23.976 fps
    Color space : YUV
    Chroma subsampling : 4:2:0
    Bit depth : 8 bits
    Scan type : Progressive
    Bits/(Pixel*Frame) : 0.238
    Stream size : 2.64 GiB (85%)
    Language : English
    Default : Yes
    Forced : No
    Color range : Limited
    Color primaries : BT.709
    Transfer characteristics : BT.709
    Matrix coefficients : BT.709

    Audio #1
    ID : 2
    Format : AC-3
    Format/Info : Audio Coding 3
    Mode extension : CM (complete main)
    Format settings, Endianness : Big
    Codec ID : A_AC3
    Duration : 1h 37mn
    Bit rate mode : Constant
    Bit rate : 192 Kbps
    Channel(s) : 2 channels
    Channel positions : Front: L R
    Sampling rate : 48.0 KHz
    Bit depth : 16 bits
    Compression mode : Lossy
    Stream size : 134 MiB (4%)
    Language : Russian
    Default : Yes
    Forced : No

    Audio #2
    ID : 3
    Format : AC-3
    Format/Info : Audio Coding 3
    Mode extension : CM (complete main)
    Format settings, Endianness : Big
    Codec ID : A_AC3
    Duration : 1h 37mn
    Bit rate mode : Constant
    Bit rate : 384 Kbps
    Channel(s) : 6 channels
    Channel positions : Front: L C R, Side: L R, LFE
    Sampling rate : 48.0 KHz
    Bit depth : 16 bits
    Compression mode : Lossy
    Stream size : 269 MiB (8%)
    Language : English
    Default : No
    Forced : No

    Text
    ID : 4
    Format : UTF-8
    Codec ID : S_TEXT/UTF8
    Codec ID/Info : UTF-8 Plain Text
    Language : English
    Default : No
    Forced : No

    Menu
    00:00:00.000 : en:1
    00:10:29.000 : en:2
    00:19:41.000 : en:3
    00:30:17.000 : en:4
    00:40:12.000 : en:5
    00:52:32.000 : en:6
    01:01:01.000 : en:7
    01:10:38.000 : en:8
    01:20:48.000 : en:9
    01:29:59.000 : en:10
4.0 из 10
голосов: 2
/10
/10
grab777 15-02-2016, 20:08

Chakki | 16-02-2016, 00:02 | Статус: Оффлайн

Сука доктор....когда ты уже упадешь с обрыва.... ireful
Информация
Посетители, находящиеся в группе Гости, не могут оставлять комментарии к данной публикации.