Панель пользователя
Регистрация

Воспользуйтесь социальными сетями для входа на https://freerutor.com

vk odnoklassniki facebook mailru yandex google
Популярное
Счетчик
Голосуй за нас
VIP на сайте
Популярное
Товары интернет магазина
загрузка...

Джек Айриш: Тупик / Jack Irish: Dead Point (2014) WEB-DL 1080p

Джек Айриш: Тупик / Jack Irish: Dead Point (2014) WEB-DL 1080p
Участники торрент обмена
Сидов Пиров Скачали
0 0 250
Характеристика
Размер Файлы
3.34 GB
Релиз группа
Поделиться раздачей
Фильмы (720,1080,Blu-Ray)
Наименование: Джек Айриш: Тупик
Оригинальное наименование: Jack Irish: Dead Point
Категория: Драма, криминал
Произведено: Австралия, Германия / Essential Media & Entertainment, Film Victoria, ZDF Enterprises
Режиссер постановщик: Джеффри Уокер
В главных ролях: Гай Пирс, Марта Дюссельдорп, Аарон Педерсен, Рой Биллинг, Шэйн Джейкобсон, Дебора Мэйлман, Винс Колосимо, Кэт Стюарт, Бэрри Хамфриз, Доминик Оллбёрн
Краткое описание: Джек Айриш - человек, пытающийся вновь собрать свою жизнь воедино. Бывший адвокат, чей мир взорвался после того, как его жену Изабель убил клиент, Джек попытался полностью раствориться в алкоголе. Впрочем, благодаря друзьям он не слишком преуспел в этой попытке. Он бросил заниматься уголовным правом и сейчас просто живет полноценной "мужской жизнью": спорт, выпивка, искусство, ставки, драки, редкая любовь... Он работает на Гарри Странга, выбивая долги и помогая манипулировать ставками на скачках. Еще его можно найти в мебельной мастерской Чарли Тауба, где он обучается старинным методам работы с деревом. А его вторым домом стал паб Принц Пруссии - последняя цитадель футбольного клуба Фицрой, легендой которого был его отец. Он успешно избегает своего прошлого, до тех пор, пока прошлое не находит его само...
  • Видео данные: MPEG-4 AVC, 4853 Кбит/с, 1920x1080
    Аудио данные: Русский, английский (AC3, 2 ch, 384 Кбит/с)
    Перевод: Профессиональный, многоголосный [AlexFilm]
    Субтитры: Русские, английские
    Продолжительность: 01:23:18
  • Джек Айриш: Тупик / Jack Irish: Dead Point (2014) WEB-DL 1080p Джек Айриш: Тупик / Jack Irish: Dead Point (2014) WEB-DL 1080p Джек Айриш: Тупик / Jack Irish: Dead Point (2014) WEB-DL 1080p
  • Общее
    Уникальный идентификатор : 248974965891420710927557631852718148984 (0xBB4ED58F87128E42877077F09F914D78)
    Полное имя : F:\Раздача HD\Tupik.2014.WEB-DL. 1080p. grab777.mkv
    Формат : Matroska
    Версия формата : Version 2
    Размер файла : 3,34 Гбайт
    Продолжительность : 1 ч. 23 м.
    Общий поток : 5735 Кбит/сек
    Название фильма : Джек Айриш: Тупик / Jack Irish: Dead Point.2014.WEB-DL. 1080p
    Дата кодирования : UTC 2016-02-15 07:12:40
    Программа кодирования : mkvmerge v5.8.0 ('No Sleep / Pillow') built on Sep 2 2012 15:37:04
    Библиотека кодирования : libebml v1.2.3 + libmatroska v1.3.0

    Видео
    Идентификатор : 1
    Формат : AVC
    Формат/Информация : Advanced Video Codec
    Профиль формата : High@L4.0
    Параметр CABAC формата : Да
    Параметр ReFrames формата : 4 кадра
    Идентификатор кодека : V_MPEG4/ISO/AVC
    Продолжительность : 1 ч. 23 м.
    Битрейт : 4853 Кбит/сек
    Ширина : 1920 пикселей
    Высота : 1080 пикселей
    Соотношение сторон : 16:9
    Режим частоты кадров : Постоянный
    Частота кадров : 25,000 кадров/сек
    Цветовое пространство : YUV
    Субдискретизация насыщенности : 4:2:0
    Битовая глубина : 8 бит
    Тип развёртки : Прогрессивная
    Бит/(Пиксели*Кадры) : 0.094
    Размер потока : 2,82 Гбайт (85%)
    Язык : English
    Default : Да
    Forced : Нет
    Основные цвета : BT.709
    Характеристики трансфера : BT.709
    Коэффициенты матрицы : BT.709

    Аудио #1
    Идентификатор : 2
    Формат : AC-3
    Формат/Информация : Audio Coding 3
    Расширение режима : CM (complete main)
    Параметр Endianness формата : Big
    Идентификатор кодека : A_AC3
    Продолжительность : 1 ч. 23 м.
    Вид битрейта : Постоянный
    Битрейт : 384 Кбит/сек
    Каналы : 2 канала
    Расположение каналов : Front: L R
    Частота : 48,0 КГц
    Битовая глубина : 16 бит
    Метод сжатия : С потерями
    Задержка видео : -1 с. 0 мс.
    Размер потока : 229 Мбайт (7%)
    Заголовок : MVO [AlexFilm]
    Язык : Russian
    Default : Да
    Forced : Нет

    Аудио #2
    Идентификатор : 3
    Формат : AC-3
    Формат/Информация : Audio Coding 3
    Расширение режима : CM (complete main)
    Параметр Endianness формата : Big
    Идентификатор кодека : A_AC3
    Продолжительность : 1 ч. 23 м.
    Вид битрейта : Постоянный
    Битрейт : 384 Кбит/сек
    Каналы : 2 канала
    Расположение каналов : Front: L R
    Частота : 48,0 КГц
    Битовая глубина : 16 бит
    Метод сжатия : С потерями
    Размер потока : 229 Мбайт (7%)
    Заголовок : Original
    Язык : English
    Default : Нет
    Forced : Нет

    Текст #1
    Идентификатор : 4
    Формат : UTF-8
    Идентификатор кодека : S_TEXT/UTF8
    Идентификатор кодека/Информация : UTF-8 Plain Text
    Язык : Russian
    Default : Нет
    Forced : Нет

    Текст #2
    Идентификатор : 5
    Формат : UTF-8
    Идентификатор кодека : S_TEXT/UTF8
    Идентификатор кодека/Информация : UTF-8 Plain Text
    Язык : English
    Default : Нет
    Forced : Нет
10.0 из 10
голосов: 2
/10
/10
grab777 15-02-2016, 12:09
Информация
Посетители, находящиеся в группе Гости, не могут оставлять комментарии к данной публикации.