Панель пользователя
Регистрация

Воспользуйтесь социальными сетями для входа на https://freerutor.com

vk odnoklassniki facebook mailru yandex google
Популярное
Счетчик
Голосуй за нас
VIP на сайте
Популярное
Товары интернет магазина
загрузка...

Следствие вели - Экипаж. Рейс на тот свет (эфир от 13.02.2016) HDTV 1080i

Следствие вели - Экипаж. Рейс на тот свет (эфир от 13.02.2016) HDTV 1080i
Участники торрент обмена
Сидов Пиров Скачали
8 0 1317
Характеристика
Размер Файлы
2.33 GB
Релиз группа
Поделиться раздачей
Документальный
Оригинальное наименование: Следствие вели... с Леонидом Каневским
Категория: Документальный, детектив, криминал, расследование
Произведено: Россия / НТВ
Режиссер постановщик: Игорь Ромащенко
Ведущий: Леонид Каневский
Краткое описание: 1985 год. В столичную больницу доставляют пациента с подозрением на радиационное облучение. Пострадавшим оказывается физик-ядерщик, работник засекреченного института. Неужели где-то утечка радиации? Но выясняется, что ученый не был облучен: его пытались убить. Под подозрение сначала попадает супруга убитого, но вскоре сыщики узнают: незадолго до ЧП немолодого ядерщика видели в компании привлекательной юной особы. Может, банальный адюльтер? Однако девушка признается, что она не любовница ученого, а его… внебрачная дочь.
[/hide]
  • Видео данные: MPEG-TS, 8479 Кбит/с, 1920x1080
    Аудио данные: Русский (MP2, 2 ch, 192 Кбит/с)
    Перевод: Оригинал (Русский)
    Продолжительность: 00:39:23
  • Следствие вели - Экипаж. Рейс на тот свет (эфир от 13.02.2016) HDTV 1080i Следствие вели - Экипаж. Рейс на тот свет (эфир от 13.02.2016) HDTV 1080i Следствие вели - Экипаж. Рейс на тот свет (эфир от 13.02.2016) HDTV 1080i
  • Общее
    Идентификатор : 1 (0x1)
    Полное имя : F:\Фильмы торренты\Sledstvie.veli.(2016.02.13).2016.HDTV.(1080i).MediaClub.ts
    Формат : MPEG-TS
    Размер файла : 2,33 Гбайт
    Продолжительность : 39 м.
    Режим общего битрейта : Переменный
    Общий поток : 8479 Кбит/сек

    Видео
    Идентификатор : 901 (0x385)
    Идентификатор меню : 1116 (0x45C)
    Формат : AVC
    Формат/Информация : Advanced Video Codec
    Профиль формата : Main@L4.0
    Параметр CABAC формата : Да
    Параметр ReFrames формата : 2 кадра
    Идентификатор кодека : 27
    Продолжительность : 39 м.
    Битрейт : 7866 Кбит/сек
    Ширина : 1920 пикселей
    Высота : 1080 пикселей
    Соотношение сторон : 16:9
    Частота кадров : 25,000 кадров/сек
    Цветовое пространство : YUV
    Субдискретизация насыщенности : 4:2:0
    Битовая глубина : 8 бит
    Тип развёртки : MBAFF
    Бит/(Пиксели*Кадры) : 0.152
    Размер потока : 2,16 Гбайт (93%)
    Основные цвета : BT.709
    Характеристики трансфера : BT.709
    Коэффициенты матрицы : BT.709

    Аудио
    Идентификатор : 902 (0x386)
    Идентификатор меню : 1116 (0x45C)
    Формат : MPEG Audio
    Версия формата : Version 1
    Профиль формата : Layer 2
    Идентификатор кодека : 3
    Продолжительность : 39 м.
    Вид битрейта : Постоянный
    Битрейт : 192 Кбит/сек
    Каналы : 2 канала
    Частота : 48,0 КГц
    Метод сжатия : С потерями
    Задержка видео : -40 мс.
    Размер потока : 54,1 Мбайт (2%)
    Язык : Russian
10.0 из 10
голосов: 2
/10
/10
grab777 13-02-2016, 19:20
Информация
Посетители, находящиеся в группе Гости, не могут оставлять комментарии к данной публикации.