Панель пользователя
Регистрация

Воспользуйтесь социальными сетями для входа на https://freerutor.com

vk odnoklassniki facebook mailru yandex google
Популярное
Счетчик
Голосуй за нас
VIP на сайте
Популярное
Товары интернет магазина
загрузка...

Мафия: Игра на выживание (2015) BDRip 1080p | Лицензия

Мафия: Игра на выживание (2015) BDRip 1080p | Лицензия
Участники торрент обмена
Сидов Пиров Скачали
7 2 1175
Характеристика
Размер Файлы
7.41 GB
Поделиться раздачей
Фильмы (720,1080,Blu-Ray)
Наименование: Мафия: Игра на выживание
Произведено: Россия
Категория: фантастика, боевик
Режиссер постановщик: Сарик Андреасян
В главных ролях: Виктор Вержбицкий, Вениамин Смехов, Юрий Чурсин, Вячеслав Разбегаев, Ольга Тумайкина, Андрей Чадов, Вадим Цаллати, Виолетта Гетманская, Наталья Рудова, Евгений Коряковский
Краткое описание: Москва. Далекое будущее. Карточная игра МАФИЯ стала самым популярным в мире телешоу. Одиннадцать человек соберутся за столом, чтобы выяснить - кто из них Мирный Житель, а кто безжалостная МАФИЯ. На глазах всего мира готовится коктейль из эмоций и чувств: хитрости, страха, лжи, ненависти, презрения, боли, гордости, страсти, любви и смерти. Ведь выигравший в схватке получит огромный денежный приз, а проигравший просто умрет...
  • Видео данные: MPEG-4 AVC, 9500 kb/s, 1920x804
    Аудио данные: Русский (DTS, 6 ch, 1510 Кбит/с), (AC3, 6 ch, 640 Кбит/с)
    Перевод: Оригинал [Лицензия]
    Продолжительность: 01:31:06
  • Мафия: Игра на выживание (2015) BDRip 1080p | Лицензия Мафия: Игра на выживание (2015) BDRip 1080p | Лицензия Мафия: Игра на выживание (2015) BDRip 1080p | Лицензия
  • Общее
    Уникальный идентификатор : 181076460945369704542522372199800441162 (0x883A0ECE544D4E10915948CC985D094A)
    Полное имя : Survival.Game.2016.BDRip.1080p.bog3417.mkv
    Формат : Matroska
    Версия формата : Version 2
    Размер файла : 7,41 Гбайт
    Продолжительность : 1 ч. 31 м.
    Общий поток : 11,6 Мбит/сек
    Дата кодирования : UTC 2016-05-25 14:06:27
    Программа кодирования : mkvmerge v7.9.0 ('Birds') 64bit
    Библиотека кодирования : libebml v1.3.1 + libmatroska v1.4.2

    Видео
    Идентификатор : 1
    Формат : AVC
    Формат/Информация : Advanced Video Codec
    Профиль формата : High@L4.1
    Параметр CABAC формата : Да
    Параметр ReFrames формата : 5 кадров
    Идентификатор кодека : V_MPEG4/ISO/AVC
    Продолжительность : 1 ч. 31 м.
    Битрейт : 9500 Кбит/сек
    Ширина : 1920 пикселей
    Высота : 804 пикселя
    Соотношение сторон : 2,40:1
    Режим частоты кадров : Постоянный
    Частота кадров : 23,976 кадра/сек
    Цветовое пространство : YUV
    Субдискретизация насыщенности : 4:2:0
    Битовая глубина : 8 бит
    Тип развёртки : Прогрессивная
    Бит/(Пиксели*Кадры) : 0.257
    Размер потока : 5,89 Гбайт (80%)
    Библиотека кодирования : x264 core 148 r2638 7599210
    Настройки программы : cabac=1 / ref=5 / deblock=1:-3:-3 / analyse=0x3:0x133 / me=umh / subme=10 / psy=1 / psy_rd=1.00:0.00 / mixed_ref=1 / me_range=32 / chroma_me=1 / trellis=2 / 8x8dct=1 / cqm=0 / deadzone=21,11 / fast_pskip=0 / chroma_qp_offset=-2 / threads=12 / lookahead_threads=1 / sliced_threads=0 / nr=0 / decimate=0 / interlaced=0 / bluray_compat=0 / constrained_intra=0 / bframes=9 / b_pyramid=2 / b_adapt=1 / b_bias=0 / direct=3 / weightb=1 / open_gop=1 / weightp=2 / keyint=240 / keyint_min=23 / scenecut=40 / intra_refresh=0 / rc=2pass / mbtree=0 / bitrate=9500 / ratetol=1.0 / qcomp=0.60 / qpmin=0 / qpmax=69 / qpstep=4 / cplxblur=20.0 / qblur=0.5 / ip_ratio=1.40 / pb_ratio=1.30 / aq=3:0.80
    Язык : English
    Default : Да
    Forced : Нет

    Аудио #1
    Идентификатор : 2
    Формат : DTS
    Формат/Информация : Digital Theater Systems
    Режим : 16
    Параметр Endianness формата : Big
    Идентификатор кодека : A_DTS
    Продолжительность : 1 ч. 31 м.
    Вид битрейта : Постоянный
    Битрейт : 1509 Кбит/сек
    Каналы : 6 каналов
    Расположение каналов : Front: L C R, Side: L R, LFE
    Частота : 48,0 КГц
    Частота кадров : 93,750 кадра/сек (512 spf)
    Битовая глубина : 24 бит
    Метод сжатия : С потерями
    Размер потока : 983 Мбайт (13%)
    Язык : Russian
    Default : Да
    Forced : Нет

    Аудио #2
    Идентификатор : 3
    Формат : AC-3
    Формат/Информация : Audio Coding 3
    Расширение режима : CM (complete main)
    Параметр Endianness формата : Big
    Идентификатор кодека : A_AC3
    Продолжительность : 1 ч. 31 м.
    Вид битрейта : Постоянный
    Битрейт : 640 Кбит/сек
    Каналы : 6 каналов
    Расположение каналов : Front: L C R, Side: L R, LFE
    Частота : 48,0 КГц
    Частота кадров : 31,250 кадров/сек (1536 spf)
    Метод сжатия : С потерями
    Размер потока : 417 Мбайт (5%)
    Язык : Russian
    Default : Нет
    Forced : Нет

    Меню
    00:00:00.000 : en:Chapter 1
    00:08:51.572 : en:Chapter 2
    00:18:26.021 : en:Chapter 3
    00:27:38.990 : en:Chapter 4
    00:37:32.124 : en:Chapter 5
    00:48:15.309 : en:Chapter 6
    00:59:19.138 : en:Chapter 7
    01:11:41.547 : en:Chapter 8
    01:26:38.776 : en:Chapter 9
6.0 из 10
голосов: 23
/10
/10
grab777 25-05-2016, 18:57

18serg1965 | 13-02-2016, 19:17 | Статус: Оффлайн

Простите мне мой хранцуский,но какое же гэ я попытался посмотреть.Не шмог даже на перемотке.Армянское кино.

luxeon2010 | 13-02-2016, 15:11 | Статус: Оффлайн

так себе фильмец, на разок посмотреть

Chakki | 12-02-2016, 10:57 | Статус: Оффлайн

Грузин что ли снял.... gun_chair .......

cummins | 12-02-2016, 07:03 | Статус: Оффлайн

Цитата: foster720p
Цитата: CorsaR
Реклама есть?

Теперь нету.

Спасибо!

foster720p | 12-02-2016, 03:48 | Статус: Онлайн

Цитата: CorsaR
Реклама есть?

Теперь нету.

CorsaR | 11-02-2016, 23:29 | Статус: Оффлайн

Реклама есть?
Информация
Посетители, находящиеся в группе Гости, не могут оставлять комментарии к данной публикации.