Панель пользователя
Регистрация

Воспользуйтесь социальными сетями для входа на https://freerutor.com

vk odnoklassniki facebook mailru yandex google
Популярное
Счетчик
Голосуй за нас
VIP на сайте
Популярное
Товары интернет магазина
загрузка...

Взлет / Lifted (2010) BDRip 1080p

Взлет / Lifted (2010) BDRip 1080p
Участники торрент обмена
Сидов Пиров Скачали
0 0 26
Характеристика
Размер Файлы
7.03 GB
Релиз группа
Поделиться раздачей
Фильмы (720,1080,Blu-Ray)
Наименование: Взлет
Оригинальное наименование: Lifted
Категория: Драма
Произведено: США / Hunter Films, Listed Picture, Pictures in a Row, Tactical Media Productions
Режиссер постановщик: Лекси Александр
В главных ролях: Дэш Майхок, Ники Эйкокс, Юрайя Шелтон, Тэд Миклер, Эрик Хоуш, Рубен Стаддард, Говард Грин, Барбара Кинкэйд-Хилл, Дариус Джамаль Ван Слайтмэн
Краткое описание: У ученика средней школы Генри много своих проблем. Мать — наркоманка со стажем, дед — расист, и, вдобавок, отца — резервиста для исполнения своей воинской обязанности забирают в Афганистан. Скромной зарплаты его отца только и достаточно, чтобы держать свою семью на плаву. В городе проходят соревнования по пению, и Генри решает выступить на них.
  • Видео данные: MPEG-4 AVC, 8470 Кбит/с, 1920x1040
    Аудио данные: Русский (AC3, 6 ch, 448 Кбит/с), английский (AC3, 6 ch, 384 Кбит/с)
    Перевод: Любительский одноголосый [Вячеслав Прошин]
    Продолжительность: 01:48:11
    Субтитры: Русские, английские
  • Взлет / Lifted (2010) BDRip 1080p Взлет / Lifted (2010) BDRip 1080p Взлет / Lifted (2010) BDRip 1080p
  • Общее
    Уникальный идентификатор : 240988558944876551565222238096144256310 (0xB54CB54C1D566711959AF7AB7E50CD36)
    Полное имя : Lifted.2010.x264.BDRip.1080p.mkv
    Формат : Matroska
    Версия формата : Version 4 / Version 2
    Размер файла : 7,03 Гбайт
    Продолжительность : 1 ч. 48 м.
    Общий поток : 9299 Кбит/сек
    Дата кодирования : UTC 2016-02-02 10:11:21
    Программа кодирования : mkvmerge v7.9.0 ('Birds') 64bit
    Библиотека кодирования : libebml v1.3.1 + libmatroska v1.4.2

    Видео
    Идентификатор : 1
    Формат : AVC
    Формат/Информация : Advanced Video Codec
    Профиль формата : High@L4.1
    Параметр CABAC формата : Да
    Параметр ReFrames формата : 4 кадра
    Идентификатор кодека : V_MPEG4/ISO/AVC
    Продолжительность : 1 ч. 48 м.
    Битрейт : 8470 Кбит/сек
    Ширина : 1920 пикселей
    Высота : 1040 пикселей
    Соотношение сторон : 1,85:1
    Режим частоты кадров : Постоянный
    Частота кадров : 23,976 кадра/сек
    Цветовое пространство : YUV
    Субдискретизация насыщенности : 4:2:0
    Битовая глубина : 8 бит
    Тип развёртки : Прогрессивная
    Бит/(Пиксели*Кадры) : 0.177
    Размер потока : 6,26 Гбайт (89%)
    Библиотека кодирования : x264 core 148 r2597 e86f3a1
    Настройки программы : cabac=1 / ref=4 / deblock=1:0:0 / analyse=0x3:0x113 / me=umh / subme=8 / psy=1 / psy_rd=1.00:0.00 / mixed_ref=1 / me_range=16 / chroma_me=1 / trellis=1 / 8x8dct=1 / cqm=0 / deadzone=21,11 / fast_pskip=0 / chroma_qp_offset=-2 / threads=12 / lookahead_threads=2 / sliced_threads=0 / nr=0 / decimate=1 / interlaced=0 / bluray_compat=0 / constrained_intra=0 / bframes=3 / b_pyramid=2 / b_adapt=2 / b_bias=0 / direct=3 / weightb=1 / open_gop=0 / weightp=2 / keyint=250 / keyint_min=23 / scenecut=40 / intra_refresh=0 / rc_lookahead=50 / rc=2pass / mbtree=1 / bitrate=8470 / ratetol=1.0 / qcomp=0.60 / qpmin=0 / qpmax=69 / qpstep=4 / cplxblur=20.0 / qblur=0.5 / ip_ratio=1.40 / aq=1:1.00
    Язык : English
    Default : Да
    Forced : Нет

    Аудио #1
    Идентификатор : 2
    Формат : AC-3
    Формат/Информация : Audio Coding 3
    Расширение режима : CM (complete main)
    Параметр Endianness формата : Big
    Идентификатор кодека : A_AC3
    Продолжительность : 1 ч. 48 м.
    Вид битрейта : Постоянный
    Битрейт : 448 Кбит/сек
    Каналы : 6 каналов
    Расположение каналов : Front: L C R, Side: L R, LFE
    Частота : 48,0 КГц
    Метод сжатия : С потерями
    Размер потока : 347 Мбайт (5%)
    Заголовок : VO (Вячеслав Прошин)
    Язык : Russian
    Default : Да
    Forced : Нет

    Аудио #2
    Идентификатор : 3
    Формат : AC-3
    Формат/Информация : Audio Coding 3
    Расширение режима : CM (complete main)
    Параметр Endianness формата : Big
    Идентификатор кодека : A_AC3
    Продолжительность : 1 ч. 48 м.
    Вид битрейта : Постоянный
    Битрейт : 384 Кбит/сек
    Каналы : 6 каналов
    Расположение каналов : Front: L C R, Side: L R, LFE
    Частота : 48,0 КГц
    Метод сжатия : С потерями
    Размер потока : 297 Мбайт (4%)
    Заголовок : Original
    Язык : English
    Default : Нет
    Forced : Нет

    Текст #1
    Идентификатор : 4
    Формат : UTF-8
    Идентификатор кодека : S_TEXT/UTF8
    Идентификатор кодека/Информация : UTF-8 Plain Text
    Заголовок : Русский (prostotak)
    Язык : Russian
    Default : Да
    Forced : Нет

    Текст #2
    Идентификатор : 5
    Формат : UTF-8
    Идентификатор кодека : S_TEXT/UTF8
    Идентификатор кодека/Информация : UTF-8 Plain Text
    Заголовок : English
    Язык : English
    Default : Нет
    Forced : Нет

    Текст #3
    Идентификатор : 6
    Формат : UTF-8
    Идентификатор кодека : S_TEXT/UTF8
    Идентификатор кодека/Информация : UTF-8 Plain Text
    Заголовок : English for the Hearing Impaired
    Язык : English
    Default : Нет
    Forced : Нет

    Меню
    00:00:00.000 : en:00:00:00.000
    00:09:15.555 : en:00:09:15.555
    00:18:31.110 : en:00:18:31.110
    00:27:46.665 : en:00:27:46.665
    00:37:02.220 : en:00:37:02.220
    00:46:17.775 : en:00:46:17.775
    00:55:33.330 : en:00:55:33.330
    01:04:48.885 : en:01:04:48.885
    01:14:04.440 : en:01:14:04.440
    01:23:19.995 : en:01:23:19.995
    01:32:35.550 : en:01:32:35.550
    01:41:51.105 : en:01:41:51.105
10.0 из 10
голосов: 2
/10
/10
grab777 8-02-2016, 01:47
Информация
Посетители, находящиеся в группе Гости, не могут оставлять комментарии к данной публикации.