Панель пользователя
Регистрация

Воспользуйтесь социальными сетями для входа на https://freerutor.com

vk odnoklassniki facebook mailru yandex google
Популярное
Счетчик
Голосуй за нас
VIP на сайте
Популярное
Товары интернет магазина
загрузка...

Рыцарь кубков (2015) BDRip 720p

Рыцарь кубков (2015) BDRip 720p
Участники торрент обмена
Сидов Пиров Скачали
3 0 399
Характеристика
Размер Файлы
6.48 GB
Поделиться раздачей
Фильмы (720,1080,Blu-Ray)
Наименование: Рыцарь кубков
Оригинальное наименование: Knight of Cups
Произведено: США
Категория: драма, мелодрама
Режиссер постановщик: Терренс Малик
В главных ролях: Кристиан Бэйл, Кейт Бланшетт, Натали Портман, Брайан Деннехи, Антонио Бандерас, Майкл Уинкотт, Фрида Пинто, Уэс Бентли, Изабель Лукас, Тереза Палмер
Краткое описание: Сценарист, живущий в Лос-Анджелесе пытается разобраться в странных событиях, происходящих вокруг него.
  • Видео данные: MPEG-4-AVC, 6412 kb/s, 1280x544
    Аудио данные: Русский, английский (AC3, 6 ch, 640 Кбит/с)
    Перевод: Профессиональное многоголосое [FocusStudio]
    Субтитры: Русские, английские
    Продолжительность: 01:58:11
  • Рыцарь кубков (2015) BDRip 720p Рыцарь кубков (2015) BDRip 720p Рыцарь кубков (2015) BDRip 720p
  • Format : Matroska
    Format version : Version 4 / Version 2
    File size : 6.48 GiB
    Duration : 1h 58mn
    Overall bit rate : 7 848 Kbps
    Movie name : Knight of Cups 2015 @ FocusStudio
    Encoded date : UTC 2016-06-09 14:51:16
    Writing application : mkvmerge v8.3.0 ('Over the Horizon') 64bit
    Writing library : libebml v1.3.1 + libmatroska v1.4.2

    Video
    ID : 1
    Format : AVC
    Format/Info : Advanced Video Codec
    Format profile : High@L4.1
    Format settings, CABAC : Yes
    Format settings, ReFrames : 12 frames
    Codec ID : V_MPEG4/ISO/AVC
    Duration : 1h 58mn
    Bit rate : 6 412 Kbps
    Width : 1 280 pixels
    Height : 544 pixels
    Display aspect ratio : 2.35:1
    Frame rate mode : Constant
    Frame rate : 23.976 fps
    Color space : YUV
    Chroma subsampling : 4:2:0
    Bit depth : 8 bits
    Scan type : Progressive
    Bits/(Pixel*Frame) : 0.384
    Stream size : 5.29 GiB (82%)
    Writing library : x264 core 142 r2431+42 c69a006 tMod [8-bit@4:2:0 X86_64]
    Encoding settings : cabac=1 / ref=12 / deblock=1:-3:-3 / analyse=0x3:0x133 / me=umh / subme=10 / psy=1 / fade_compensate=0.00 / psy_rd=1.00:0.00 / mixed_ref=1 / me_range=24 / chroma_me=1 / trellis=2 / 8x8dct=1 / cqm=0 / deadzone=21,11 / fast_pskip=0 / chroma_qp_offset=-2 / threads=12 / lookahead_threads=2 / sliced_threads=0 / nr=0 / decimate=0 / interlaced=0 / bluray_compat=0 / constrained_intra=0 / fgo=0 / bframes=8 / b_pyramid=2 / b_adapt=2 / b_bias=0 / direct=3 / weightb=1 / open_gop=0 / weightp=2 / keyint=250 / keyint_min=23 / scenecut=40 / intra_refresh=0 / rc_lookahead=60 / rc=crf / mbtree=0 / crf=17.2000 / qcomp=0.60 / qpmin=0:0:0 / qpmax=69:69:69 / qpstep=4 / vbv_maxrate=50000 / vbv_bufsize=62500 / crf_max=0.0 / nal_hrd=none / filler=0 / ip_ratio=1.30 / pb_ratio=1.20 / aq=3:0.90 / aq-sensitivity=10.00 / aq-factor=1.00:1.00:1.00 / aq2=0 / aq3=0 / zones=7384,8208,crf=14
    Language : English
    Default : Yes
    Forced : No

    Audio #1
    ID : 2
    Format : AC-3
    Format/Info : Audio Coding 3
    Mode extension : CM (complete main)
    Format settings, Endianness : Big
    Codec ID : A_AC3
    Duration : 1h 58mn
    Bit rate mode : Constant
    Bit rate : 640 Kbps
    Channel(s) : 6 channels
    Channel positions : Front: L C R, Side: L R, LFE
    Sampling rate : 48.0 KHz
    Bit depth : 16 bits
    Compression mode : Lossy
    Stream size : 541 MiB (8%)
    Title : MVO FocusStudio
    Language : Russian
    Default : Yes
    Forced : No

    Audio #2
    ID : 3
    Format : AC-3
    Format/Info : Audio Coding 3
    Mode extension : CM (complete main)
    Format settings, Endianness : Big
    Codec ID : A_AC3
    Duration : 1h 58mn
    Bit rate mode : Constant
    Bit rate : 640 Kbps
    Channel(s) : 6 channels
    Channel positions : Front: L C R, Side: L R, LFE
    Sampling rate : 48.0 KHz
    Bit depth : 16 bits
    Compression mode : Lossy
    Stream size : 541 MiB (8%)
    Title : Original
    Language : English
    Default : No
    Forced : No

    Text #1
    ID : 4
    Format : UTF-8
    Codec ID : S_TEXT/UTF8
    Codec ID/Info : UTF-8 Plain Text
    Title : FocusStudio
    Language : Russian
    Default : No
    Forced : No

    Text #2
    ID : 5
    Format : UTF-8
    Codec ID : S_TEXT/UTF8
    Codec ID/Info : UTF-8 Plain Text
    Language : English
    Default : No
    Forced : No

    Text #3
    ID : 6
    Format : UTF-8
    Codec ID : S_TEXT/UTF8
    Codec ID/Info : UTF-8 Plain Text
    Title : SDH
    Language : English
    Default : No
    Forced : No

    Menu
    00:00:00.000 : en:Chapter 01
    00:09:33.406 : en:Chapter 02
    00:21:16.400 : en:Chapter 03
    00:30:05.679 : en:Chapter 04
    00:39:28.324 : en:Chapter 05
    00:49:00.146 : en:Chapter 06
    00:59:26.646 : en:Chapter 07
    01:10:42.613 : en:Chapter 08
    01:21:11.408 : en:Chapter 09
    01:30:31.593 : en:Chapter 10
    01:40:46.624 : en:Chapter 11
    01:51:10.414 : en:Chapter 12
    01:58:10.166 : en:Chapter 13
6.6 из 10
голосов: 7
/10
/10
grab777 10-06-2016, 08:05
Информация
Посетители, находящиеся в группе Гости, не могут оставлять комментарии к данной публикации.