Панель пользователя
Регистрация

Воспользуйтесь социальными сетями для входа на https://freerutor.com

vk odnoklassniki facebook mailru yandex google
Популярное
Счетчик
Голосуй за нас
VIP на сайте
Популярное
Товары интернет магазина
загрузка...

Скауты против зомби / Scouts Guide to the Zombie Apocalypse (2015) BDRip-AVC | Лицензия

Скауты против зомби / Scouts Guide to the Zombie Apocalypse (2015) BDRip-AVC | Лицензия
Участники торрент обмена
Сидов Пиров Скачали
1 0 193
Характеристика
Размер Файлы
2.32 GB
Релиз группа
Поделиться раздачей
Фильмы (AVC)
Наименование: Скауты против зомби
Оригинальное наименование: Scouts Guide to the Zombie Apocalypse
Категория: ужасы, комедия
Произведено: США
Режиссер постановщик: Кристофер Лэндон
В главных ролях: Тай Шеридан, Логан Миллер, Джои Морган, Сара Дюмон, Дэвид Кокнер, Холстон Сейдж, Клорис Личмен, Ники Косс, Хирам А. Мюррэй, Лукас Гейдж
Краткое описание: Встречайте самую нелепую команду героев в мире - трое закадычных друзей-бойскаутов и безбашенная официантка. Именно им выпадает миссия остановить зомбиапокалипсис, который уже погрузил в хаос захолустный сонный городок и грозит охватить всю планету. Последняя надежда человечества - скаутские приемы и умения. К борьбе с зомби будь готов! Всегда готов!
  • Видео данные: MPEG-4 AVC, 1056x440 (2.40:1), 2684 kbps, 23,976 fps, 0,241 bpp
    Аудио данные: Russian: AC3, 448 kb/s (6 ch) / English: AC3, 448 kb/s (6 ch)
    Перевод: Дублированный [BD CEE]
    Субтитры: русские, украинские, английские (Full), английские (SDH)
    Продолжительность: 01:32:45
  • Скауты против зомби / Scouts Guide to the Zombie Apocalypse (2015) BDRip-AVC | Лицензия Скауты против зомби / Scouts Guide to the Zombie Apocalypse (2015) BDRip-AVC | Лицензия Скауты против зомби / Scouts Guide to the Zombie Apocalypse (2015) BDRip-AVC | Лицензия
  • Общее
    Уникальный идентификатор : 231187203475807051933102648506838187985 (0xADED0929C04386A89A8CCC0A13247FD1)
    Полное имя : H:\Scouts.Guide.To.The.Zombie.Apocalypse.2015.BDRip.AVC.by.R.G.Resident.mkv
    Формат : Matroska
    Версия формата : Version 4 / Version 2
    Размер файла : 2,32 Гбайт
    Длительность : 1 ч. 32 м.
    Общий поток : 3582 Кбит/сек
    Название фильма : Scouts Guide to the Zombie Apocalypse (2015) BDRip-AVC by R.G. Resident
    Дата кодирования : UTC 2016-01-24 08:47:29
    Программа кодирования : mkvmerge v8.8.0 ('Wind at my back') 64bit
    Библиотека кодирования : libebml v1.3.3 + libmatroska v1.4.4

    Видео
    Идентификатор : 1
    Формат : AVC
    Формат/Информация : Advanced Video Кодек
    Профиль формата : High@L4.1
    Параметр CABAC формата : Да
    Параметр ReFrames формата : 12 кадров
    Идентификатор кодека : V_MPEG4/ISO/AVC
    Длительность : 1 ч. 32 м.
    Битрейт : 2684 Кбит/сек
    Ширина : 1056 пикселей
    Высота : 440 пикселей
    Соотношение сторон : 2,40:1
    Режим частоты кадров : Постоянный
    Частота кадров : 23,976 (24000/1001) кадра/сек
    Цветовое пространство : YUV
    Субдискретизация насыщенности : 4:2:0
    Битовая глубина : 8 бит
    Тип развёртки : Прогрессивная
    Бит/(Пиксели*Кадры) : 0.241
    Размер потока : 1,74 Гбайт (75%)
    Заголовок : -Lexx-
    Библиотека кодирования : x264 core 146 r2538 121396c
    Настройки программы : cabac=1 / ref=12 / deblock=1:-2:-2 / analyse=0x3:0x113 / me=umh / subme=11 / psy=1 / psy_rd=1.00:0.10 / mixed_ref=1 / me_range=32 / chroma_me=1 / trellis=2 / 8x8dct=1 / cqm=0 / deadzone=21,11 / fast_pskip=0 / chroma_qp_offset=-3 / threads=6 / lookahead_threads=2 / sliced_threads=0 / nr=0 / decimate=0 / interlaced=0 / bluray_compat=0 / constrained_intra=0 / bframes=12 / b_pyramid=2 / b_adapt=2 / b_bias=0 / direct=3 / weightb=1 / open_gop=0 / weightp=2 / keyint=240 / keyint_min=23 / scenecut=40 / intra_refresh=0 / rc=2pass / mbtree=0 / bitrate=2684 / ratetol=1.0 / qcomp=0.60 / qpmin=0 / qpmax=69 / qpstep=4 / cplxblur=20.0 / qblur=0.5 / ip_ratio=1.40 / pb_ratio=1.30 / aq=1:1.00
    Язык : English
    Default : Да
    Forced : Нет

    Аудио #1
    Идентификатор : 2
    Формат : AC-3
    Формат/Информация : Audio Coding 3
    Расширение режима : CM (complete main)
    Параметр Endianness формата : Big
    Идентификатор кодека : A_AC3
    Длительность : 1 ч. 32 м.
    Вид битрейта : Постоянный
    Битрейт : 448 Кбит/сек
    Каналы : 6 каналов
    Расположение каналов : Front: L C R, Side: L R, LFE
    Частота : 48,0 КГц
    Частота кадров : 31,250 кадров/сек (1536 spf)
    Метод сжатия : С потерями
    Размер потока : 297 Мбайт (13%)
    Заголовок : Дубляж BD CEE
    Язык : Russian
    Default : Да
    Forced : Нет

    Аудио #2
    Идентификатор : 3
    Формат : AC-3
    Формат/Информация : Audio Coding 3
    Расширение режима : CM (complete main)
    Параметр Endianness формата : Big
    Идентификатор кодека : A_AC3
    Длительность : 1 ч. 32 м.
    Вид битрейта : Постоянный
    Битрейт : 448 Кбит/сек
    Каналы : 6 каналов
    Расположение каналов : Front: L C R, Side: L R, LFE
    Частота : 48,0 КГц
    Частота кадров : 31,250 кадров/сек (1536 spf)
    Метод сжатия : С потерями
    Размер потока : 297 Мбайт (13%)
    Заголовок : Оригинал
    Язык : English
    Default : Нет
    Forced : Нет

    Текст #1
    Идентификатор : 4
    Формат : UTF-8
    Идентификатор кодека : S_TEXT/UTF8
    Идентификатор кодека/Информация : UTF-8 Plain Text
    Длительность : 1 ч. 26 м.
    Битрейт : 83 бит/сек
    Count of elements : 1028
    Размер потока : 52,8 Кбайт (0%)
    Язык : Russian
    Default : Нет
    Forced : Нет

    Текст #2
    Идентификатор : 5
    Формат : UTF-8
    Идентификатор кодека : S_TEXT/UTF8
    Идентификатор кодека/Информация : UTF-8 Plain Text
    Длительность : 1 ч. 28 м.
    Битрейт : 90 бит/сек
    Count of elements : 1180
    Размер потока : 58,3 Кбайт (0%)
    Язык : Ukrainian
    Default : Нет
    Forced : Нет

    Текст #3
    Идентификатор : 6
    Формат : UTF-8
    Идентификатор кодека : S_TEXT/UTF8
    Идентификатор кодека/Информация : UTF-8 Plain Text
    Длительность : 1 ч. 26 м.
    Битрейт : 52 бит/сек
    Count of elements : 1219
    Размер потока : 33,0 Кбайт (0%)
    Заголовок : Full
    Язык : English
    Default : Нет
    Forced : Нет

    Текст #4
    Идентификатор : 7
    Формат : UTF-8
    Идентификатор кодека : S_TEXT/UTF8
    Идентификатор кодека/Информация : UTF-8 Plain Text
    Длительность : 1 ч. 28 м.
    Битрейт : 56 бит/сек
    Count of elements : 1382
    Размер потока : 36,5 Кбайт (0%)
    Заголовок : SDH
    Язык : English
    Default : Нет
    Forced : Нет

    Меню
    00:00:00.000 : en:Chapter 01
    00:06:45.154 : en:Chapter 02
    00:14:53.767 : en:Chapter 03
    00:21:31.164 : en:Chapter 04
    00:27:01.953 : en:Chapter 05
    00:31:30.597 : en:Chapter 06
    00:39:25.237 : en:Chapter 07
    00:45:57.838 : en:Chapter 08
    00:51:13.987 : en:Chapter 09
    00:57:32.198 : en:Chapter 10
    01:06:08.130 : en:Chapter 11
    01:12:08.949 : en:Chapter 12
    01:20:00.003 : en:Chapter 13
    01:26:04.534 : en:Chapter 14
9.9 из 10
голосов: 7
/10
/10
Раздачу отредактировал: RG HDFilms - 24-01-2016, 12:14
По причине: (замена звука на дубляж - Лицензия BD CEE)
RG HDFilms 24-01-2016, 12:13

profesy | 3-02-2016, 10:08 | Статус: Оффлайн

в сети есть чадов
фильм интереснее получился, чем в бубняже

RG HDFilms | 24-01-2016, 12:17 | Статус: Оффлайн

Торрент обновлен, замена звука на дубляж - Лицензия BD CEE. За субтитры и русскую дорожку спасибо potroks.

RG HDFilms | 5-01-2016, 09:15 | Статус: Оффлайн

Цитата: 6arbo
Или для понта (форса)?

А для чего тут ваш коммент? Для понта (форса)?
Цитата: 6arbo
Не лениво конвертировать то,что никто не качает?

Видео кодировалось давно, рип раздавался на разных трекерах сначала со звуком камрип, любительской озвучкой, с чистым звуком. С 05.01.16 рип раздается со звуком от iTunes, так что количество скачиваний в настоящее время это нифига не показатель, возможно те, кому был интересен фильм, посмотрели его раньше.
Цитата: 6arbo
Или не своё?

Есть сомнения? Могу предоставить лог кодирования.

6arbo | 5-01-2016, 05:07 | Статус: Оффлайн

Не лениво конвертировать то,что никто не качает?Или для понта (форса)?Или не своё?
Информация
Посетители, находящиеся в группе Гости, не могут оставлять комментарии к данной публикации.