Панель пользователя
Регистрация

Воспользуйтесь социальными сетями для входа на https://freerutor.com

vk odnoklassniki facebook mailru yandex google
Популярное
Счетчик
Голосуй за нас
VIP на сайте
Популярное
Товары интернет магазина
загрузка...

Раскаяние / Гнездо / Apparition (2015) BDRip 1080p

Раскаяние / Гнездо / Apparition (2015) BDRip 1080p
Участники торрент обмена
Сидов Пиров Скачали
0 0 223
Характеристика
Размер Файлы
7.88 GB
Поделиться раздачей
Фильмы (720,1080,Blu-Ray)
Наименование: Раскаяние (Гнездо)
Оригинальное наименование: Apparition (Remorse / The Nesting)
Категория: Триллер, ужасы
Произведено: США, Futurist Ape Productions, Thunder Smoke Media
Режиссер постановщик: Куинн Саундерс
В главных ролях: Ребека Чадхури, Дэйв Дрокслер, Катрина Ло, Джоди Квигли, Лили Бордан, Джаретт Армстронг, Айрен ДеЛаМэтр, Джозеф Форштром, Пит Постильоне, Меган Роуз Видер, Томас Рой, Том Сеттефрати, Марго Трови, Мелисса Чадвик
Краткое описание: После того, как невеста Дуга Лори погибла в автокатастрофе, молодой человек уезжает в одинокую ферму в глуши, чтобы оправиться от утери. С Дугом начинают происходить сверхъестественные вещи, помогающие ему раскрыть тайну, которую Лори унесла с собой в могилу...
  • Видео данные: MPEG-4 AVC, 8380 Кбит/с, 1920x1032
    Аудио данные: Русский (АС3, 2 ch, 448 Кбит/с), (DTS, 2 ch, 1509 Кбит/с), английский (DTS, 2 ch, 1509 Кбит/с)
    Перевод: Авторский (Андрей Дольский)
    Продолжительность: 02.01.2016
  • Раскаяние / Гнездо / Apparition (2015) BDRip 1080p Раскаяние / Гнездо / Apparition (2015) BDRip 1080p
  • General
    Unique ID : 199968573568703932281335059976532717007 (0x96708BDF60EBB2B2B4AE3F1859F2EDCF)
    Complete name : The Nesting. 2015. BDRip 1080p - ylnian.mkv
    Format : Matroska
    Format version : Version 4 / Version 2
    File size : 7.88 GiB
    Duration : 1h 35mn
    Overall bit rate : 11.8 Mbps
    Movie name : The Nesting. 2015. BDRip 1080p - ylnian
    Encoded date : UTC 2016-01-02 11:54:37
    Writing application : mkvmerge v8.3.0 ('Over the Horizon') 64bit
    Writing library : libebml v1.3.1 + libmatroska v1.4.2

    Video
    ID : 1
    Format : AVC
    Format/Info : Advanced Video Codec
    Format profile : High@L4.1
    Format settings, CABAC : Yes
    Format settings, ReFrames : 4 frames
    Codec ID : V_MPEG4/ISO/AVC
    Duration : 1h 35mn
    Bit rate : 8 380 Kbps
    Width : 1 920 pixels
    Height : 1 032 pixels
    Display aspect ratio : 1.85:1
    Frame rate mode : Constant
    Frame rate : 23.976 fps
    Color space : YUV
    Chroma subsampling : 4:2:0
    Bit depth : 8 bits
    Scan type : Progressive
    Bits/(Pixel*Frame) : 0.176
    Stream size : 5.42 GiB (69%)
    Title : The Nesting. 2015. BDRip 1080p - ylnian
    Writing library : x264 core 146 r2538 121396c
    Encoding settings : cabac=1 / ref=4 / deblock=1:-3:-3 / analyse=0x3:0x133 / me=umh / subme=11 / psy=1 / psy_rd=1.05:0.15 / mixed_ref=1 / me_range=48 / chroma_me=1 / trellis=2 / 8x8dct=1 / cqm=0 / deadzone=21,11 / fast_pskip=1 / chroma_qp_offset=-6 / threads=8 / lookahead_threads=2 / sliced_threads=0 / nr=0 / decimate=1 / interlaced=0 / bluray_compat=0 / constrained_intra=0 / bframes=12 / b_pyramid=2 / b_adapt=2 / b_bias=0 / direct=2 / weightb=1 / open_gop=0 / weightp=1 / keyint=240 / keyint_min=1 / scenecut=40 / intra_refresh=0 / rc_lookahead=60 / rc=2pass / mbtree=1 / bitrate=8380 / ratetol=1.0 / qcomp=0.60 / qpmin=0 / qpmax=69 / qpstep=4 / cplxblur=20.0 / qblur=0.5 / vbv_maxrate=40000 / vbv_bufsize=78125 / nal_hrd=none / filler=0 / ip_ratio=1.40 / aq=2:1.00
    Language : English
    Default : Yes
    Forced : Yes

    Audio #1
    ID : 2
    Format : AC-3
    Format/Info : Audio Coding 3
    Mode extension : CM (complete main)
    Format settings, Endianness : Big
    Codec ID : A_AC3
    Duration : 1h 35mn
    Bit rate mode : Constant
    Bit rate : 448 Kbps
    Channel(s) : 2 channels
    Channel positions : Front: L R
    Sampling rate : 48.0 KHz
    Compression mode : Lossy
    Stream size : 305 MiB (4%)
    Title : AVO (Андрей Дольский) (AC3 2.0 448 kbps)
    Language : Russian
    Default : Yes
    Forced : Yes

    Audio #2
    ID : 3
    Format : DTS
    Format/Info : Digital Theater Systems
    Mode : 16
    Format settings, Endianness : Big
    Codec ID : A_DTS
    Duration : 1h 35mn
    Bit rate mode : Constant
    Bit rate : 1 509 Kbps
    Channel(s) : 2 channels
    Channel positions : Front: L R
    Sampling rate : 48.0 KHz
    Bit depth : 16 bits
    Compression mode : Lossy
    Stream size : 1.00 GiB (13%)
    Title : AVO (Андрей Дольский) (DTS 2.0 1509 kbps)
    Language : Russian
    Default : No
    Forced : No

    Audio #3
    ID : 4
    Format : DTS
    Format/Info : Digital Theater Systems
    Mode : 16
    Format settings, Endianness : Big
    Codec ID : A_DTS
    Duration : 1h 35mn
    Bit rate mode : Constant
    Bit rate : 1 509 Kbps
    Channel(s) : 2 channels
    Channel positions : Front: L R
    Sampling rate : 48.0 KHz
    Bit depth : 16 bits
    Compression mode : Lossy
    Stream size : 1.00 GiB (13%)
    Title : DTS 2.0 1509 kbps
    Language : English
    Default : No
    Forced : No

    Menu
    00:00:00.000 : en:00:00:00.000
    00:07:29.783 : en:00:07:29.783
    00:16:53.137 : en:00:16:53.137
    00:24:06.695 : en:00:24:06.695
    00:31:57.707 : en:00:31:57.707
    00:39:55.435 : en:00:39:55.435
    00:47:53.037 : en:00:47:53.037
    00:56:01.149 : en:00:56:01.149
    01:04:54.974 : en:01:04:54.974
    01:13:41.459 : en:01:13:41.459
    01:20:18.981 : en:01:20:18.981
    01:28:09.785 : en:01:28:09.785
7.8 из 10
голосов: 4
/10
/10
foster720p 2-01-2016, 20:55

zion20 | 4-01-2016, 19:58 | Статус: Оффлайн

Цитата: SANJOK
Продолжительность настораживает))

2 часа 1 минута и 2016 секунд acute

SANJOK | 3-01-2016, 11:13 | Статус: Оффлайн

Продолжительность настораживает))
Информация
Посетители, находящиеся в группе Гости, не могут оставлять комментарии к данной публикации.