Панель пользователя
Регистрация

Воспользуйтесь социальными сетями для входа на https://freerutor.com

vk odnoklassniki facebook mailru yandex google
Популярное
Счетчик
Голосуй за нас
VIP на сайте
Популярное
Товары интернет магазина
загрузка...

Снежная битва (2015) BDRip 1080p | Лицензия

Снежная битва (2015) BDRip 1080p | Лицензия
Участники торрент обмена
Сидов Пиров Скачали
1 0 183
Характеристика
Размер Файлы
3.31 GB
Поделиться раздачей
Мультфильмы
Наименование: Снежная битва
Оригинальное наименование: La guerre des tuques 3D
Произведено: Канада
Категория: мультфильм
Режиссер постановщик: Жан-Франсуа Пуле, Франсуа Бриссон
В главных ролях: Анджела Галуппо, Марилуп Вульф, Люсинда Дэвис, Николас Савард-Хербер, Софи Кадьо, Энн Касабонн, Хелен Буржуа Леклерк, Росс Линч, Катрин Трюдо, Жильдор Руа
Краткое описание: Чтобы развлечься во время зимних каникул, детвора из маленькой деревни решает устроить грандиозное снежное побоище между двумя командами.
  • Видео данные: MPEG-4 AVC, 4731 Кбит/с, 1920x800
    Аудио данные: Русский (AC3, 6 ch, 384 Кбит/с), французский (AC3, 6 ch, 640 Кбит/с)
    Перевод: Дублированный [iTunes]
    Продолжительность: 01:23:48
  • Снежная битва (2015) BDRip 1080p | Лицензия Снежная битва (2015) BDRip 1080p | Лицензия Снежная битва (2015) BDRip 1080p | Лицензия
  • General
    Unique ID : 170259057781663178745148921496429030944 (0x8016B3A719797B3E8ACB41D8CA566E20)
    Complete name : E:МУЛЬТЫСнежная.Битва.2015.x264.BDRip.1080p.mkv
    Format : Matroska
    Format version : Version 4 / Version 2
    File size : 3.31 GiB
    Duration : 1h 22mn
    Overall bit rate : 5 757 Kbps
    Movie name : Снежная Битва - rip by LORDKILL
    Encoded date : UTC 2016-03-07 08:30:32
    Writing application : mkvmerge v8.3.0 ('Over the Horizon') 64bit
    Writing library : libebml v1.3.1 + libmatroska v1.4.2

    Video
    ID : 1
    Format : AVC
    Format/Info : Advanced Video Codec
    Format profile : High@L4.1
    Format settings, CABAC : Yes
    Format settings, ReFrames : 5 frames
    Codec ID : V_MPEG4/ISO/AVC
    Duration : 1h 22mn
    Bit rate : 4 731 Kbps
    Width : 1 920 pixels
    Height : 800 pixels
    Display aspect ratio : 2.40:1
    Frame rate mode : Constant
    Frame rate : 23.976 (24000/1001) fps
    Color space : YUV
    Chroma subsampling : 4:2:0
    Bit depth : 8 bits
    Scan type : Progressive
    Bits/(Pixel*Frame) : 0.128
    Stream size : 2.72 GiB (82%)
    Writing library : x264 core 146 r2538 121396c
    Encoding settings : cabac=1 / ref=5 / deblock=1:-1:-1 / analyse=0x3:0x113 / me=umh / subme=11 / psy=1 / psy_rd=1.00:0.00 / mixed_ref=1 / me_range=32 / chroma_me=1 / trellis=2 / 8x8dct=1 / cqm=0 / deadzone=21,11 / fast_pskip=0 / chroma_qp_offset=-2 / threads=12 / lookahead_threads=2 / sliced_threads=0 / nr=0 / decimate=1 / interlaced=0 / bluray_compat=0 / constrained_intra=0 / bframes=8 / b_pyramid=2 / b_adapt=2 / b_bias=0 / direct=1 / weightb=1 / open_gop=0 / weightp=2 / keyint=240 / keyint_min=23 / scenecut=40 / intra_refresh=0 / rc_lookahead=40 / rc=crf / mbtree=0 / crf=18.0 / qcomp=0.60 / qpmin=0 / qpmax=69 / qpstep=4 / vbv_maxrate=62500 / vbv_bufsize=78125 / crf_max=0.0 / nal_hrd=none / filler=0 / ip_ratio=1.40 / pb_ratio=1.30 / aq=1:1.00
    Default : Yes
    Forced : No

    Audio #1
    ID : 2
    Format : AC-3
    Format/Info : Audio Coding 3
    Mode extension : CM (complete main)
    Format settings, Endianness : Big
    Codec ID : A_AC3
    Duration : 1h 22mn
    Bit rate mode : Constant
    Bit rate : 384 Kbps
    Channel(s) : 6 channels
    Channel positions : Front: L C R, Side: L R, LFE
    Sampling rate : 48.0 KHz
    Frame rate : 31.250 fps (1536 spf)
    Compression mode : Lossy
    Stream size : 226 MiB (7%)
    Title : Дубляж
    Language : Russian
    Default : Yes
    Forced : No

    Audio #2
    ID : 3
    Format : AC-3
    Format/Info : Audio Coding 3
    Mode extension : CM (complete main)
    Format settings, Endianness : Big
    Codec ID : A_AC3
    Duration : 1h 22mn
    Bit rate mode : Constant
    Bit rate : 640 Kbps
    Channel(s) : 6 channels
    Channel positions : Front: L C R, Side: L R, LFE
    Sampling rate : 48.0 KHz
    Frame rate : 31.250 fps (1536 spf)
    Compression mode : Lossy
    Stream size : 377 MiB (11%)
    Language : English
    Default : No
    Forced : No

    Menu
    00:00:00.000 : en:00:00:00.000
    00:04:39.112 : en:00:04:39.112
    00:09:17.640 : en:00:09:17.640
    00:17:37.974 : en:00:17:37.974
    00:22:18.879 : en:00:22:18.879
    00:28:09.688 : en:00:28:09.688
    00:31:41.358 : en:00:31:41.358
    00:36:09.376 : en:00:36:09.376
    00:44:13.860 : en:00:44:13.860
    00:47:54.121 : en:00:47:54.121
    00:53:04.264 : en:00:53:04.264
    00:58:45.564 : en:00:58:45.564
    01:03:37.230 : en:01:03:37.230
    01:07:00.433 : en:01:07:00.433
    01:14:14.992 : en:01:14:14.992
    01:19:07.451 : en:01:19:07.451
8.3 из 10
голосов: 4
/10
/10
grab777 27-06-2016, 01:42

Vecher | 2-01-2016, 15:30 | Статус: Оффлайн

Смотрел в кинотеатре с дочерью... Очень понравилась картинка 3D !!! даже вылеты есть.. хоть и не много но всё же..) мульт интерестный...) respekt
Информация
Посетители, находящиеся в группе Гости, не могут оставлять комментарии к данной публикации.