Панель пользователя
Регистрация

Воспользуйтесь социальными сетями для входа на https://freerutor.com

vk odnoklassniki facebook mailru yandex google
Популярное
Счетчик
Голосуй за нас
VIP на сайте
Популярное
Товары интернет магазина
загрузка...

Марсианин / The Martian (2015) BDRemux 1080p | Лицензия

Марсианин / The Martian (2015) BDRemux 1080p | Лицензия
Участники торрент обмена
Сидов Пиров Скачали
6 1 3353
Характеристика
Размер Файлы
32.03 GB
Поделиться раздачей
Фильмы (720,1080,Blu-Ray)
Наименование: Марсианин
Оригинальное наименование: The Martian
Категория: фантастика, приключения
Произведено: США
Режиссер постановщик: Ридли Скотт
В главных ролях:Мэтт Дэймон, Кейт Мара, Джессика Честейн, Кристен Уиг, Маккензи Дэвис, Шон Бин, Себастьян Стэн, Дональд Гловер, Джефф Дэниелс, Майкл Пенья
Краткое описание: Марсианская миссия «Арес-3» в процессе работы была вынуждена экстренно покинуть планету из-за надвигающейся песчаной бури. Инженер и биолог Марк Уотни получил повреждение скафандра во время песчаной бури. Сотрудники миссии, посчитав его погибшим, эвакуировались с планеты, оставив Марка одного. Очнувшись, Уотни обнаруживает, что связь с Землёй отсутствует, но при этом полностью функционирует жилой модуль. Главный герой начинает искать способ продержаться на имеющихся запасах еды, витаминов, воды и воздуха ещё 4 года до прилёта следующей миссии «Арес-4».
  • Видео данные: MPEG-4 AVC, 29628 kb/s, 1920x1080
    Аудио данные: Russian: AC3, 384 kb/s (6 ch) / Ukrainian: AC3, 192 kb/s (2 ch) / English: DTS-HD MA, 4997 kb/s (6 ch)
    Перевод: Дублированный [iTunes]
    Субтитры: Русский, Украинский, Английский
    Продолжительность: 02:22:10
  • Марсианин / The Martian (2015) BDRemux 1080p | Лицензия Марсианин / The Martian (2015) BDRemux 1080p | Лицензия Марсианин / The Martian (2015) BDRemux 1080p | Лицензия
  • MediaInfo:

    Общее
    Уникальный идентификатор : 255117720123245744519752843592562465312 (0xBFEDE2BA26464A3A96CCFC8E23D95A20)
    Полное имя : F:The.Martian.2015.BluRay.Remux.1080p.by.bog3417.mkv
    Формат : Matroska
    Версия формата : Version 2
    Размер файла : 32,0 Гбайт
    Продолжительность : 2 ч. 21 м.
    Режим общего битрейта : Переменный
    Общий поток : 32,4 Мбит/сек
    Дата кодирования : UTC 2015-12-30 07:03:29
    Программа кодирования : mkvmerge v7.9.0 ('Birds') 64bit
    Библиотека кодирования : libebml v1.3.1 + libmatroska v1.4.2

    Видео
    Идентификатор : 1
    Формат : AVC
    Формат/Информация : Advanced Video Codec
    Профиль формата : High@L4.1
    Параметр CABAC формата : Да
    Параметр ReFrames формата : 4 кадра
    Идентификатор кодека : V_MPEG4/ISO/AVC
    Продолжительность : 2 ч. 21 м.
    Вид битрейта : Переменный
    Максимальный битрейт : 34,0 Мбит/сек
    Ширина : 1920 пикселей
    Высота : 1080 пикселей
    Соотношение сторон : 16:9
    Режим частоты кадров : Постоянный
    Частота кадров : 23,976 кадра/сек
    Цветовое пространство : YUV
    Субдискретизация насыщенности : 4:2:0
    Битовая глубина : 8 бит
    Тип развёртки : Прогрессивная
    Default : Да
    Forced : Нет

    Аудио #1
    Идентификатор : 2
    Формат : AC-3
    Формат/Информация : Audio Coding 3
    Расширение режима : CM (complete main)
    Параметр Endianness формата : Big
    Идентификатор кодека : A_AC3
    Продолжительность : 2 ч. 21 м.
    Вид битрейта : Постоянный
    Битрейт : 384 Кбит/сек
    Каналы : 6 каналов
    Расположение каналов : Front: L C R, Side: L R, LFE
    Частота : 48,0 КГц
    Метод сжатия : С потерями
    Размер потока : 389 Мбайт (1%)
    Язык : Russian
    Default : Да
    Forced : Нет

    Аудио #2
    Идентификатор : 3
    Формат : AC-3
    Формат/Информация : Audio Coding 3
    Расширение режима : CM (complete main)
    Параметр Endianness формата : Big
    Идентификатор кодека : A_AC3
    Продолжительность : 2 ч. 21 м.
    Вид битрейта : Постоянный
    Битрейт : 192 Кбит/сек
    Каналы : 2 канала
    Расположение каналов : Front: L R
    Частота : 44,1 КГц
    Метод сжатия : С потерями
    Размер потока : 194 Мбайт (1%)
    Язык : Ukrainian
    Default : Нет
    Forced : Нет

    Аудио #3
    Идентификатор : 4
    Формат : DTS
    Формат/Информация : Digital Theater Systems
    Профиль формата : MA / Core
    Режим : 16
    Параметр Endianness формата : Big
    Идентификатор кодека : A_DTS
    Продолжительность : 2 ч. 21 м.
    Вид битрейта : Переменный
    Битрейт : Неизвестно / 1509 Кбит/сек
    Каналы : 8 каналов / 6 каналов
    Расположение каналов : Front: L C R, Side: L R, Back: L R, LFE / Front: L C R, Side: L R, LFE
    Частота : 48,0 КГц
    Битовая глубина : 24 бит
    Метод сжатия : Без потерь / Lossy
    Язык : English
    Default : Нет
    Forced : Нет

    Текст #1
    Идентификатор : 5
    Формат : UTF-8
    Идентификатор кодека : S_TEXT/UTF8
    Идентификатор кодека/Информация : UTF-8 Plain Text
    Язык : Russian
    Default : Да
    Forced : Нет

    Текст #2
    Идентификатор : 6
    Формат : UTF-8
    Идентификатор кодека : S_TEXT/UTF8
    Идентификатор кодека/Информация : UTF-8 Plain Text
    Язык : Russian
    Default : Нет
    Forced : Нет

    Текст #3
    Идентификатор : 7
    Формат : UTF-8
    Идентификатор кодека : S_TEXT/UTF8
    Идентификатор кодека/Информация : UTF-8 Plain Text
    Язык : Ukrainian
    Default : Нет
    Forced : Нет

    Текст #4
    Идентификатор : 8
    Формат : UTF-8
    Идентификатор кодека : S_TEXT/UTF8
    Идентификатор кодека/Информация : UTF-8 Plain Text
    Язык : Ukrainian
    Default : Нет
    Forced : Нет

    Текст #5
    Идентификатор : 9
    Формат : UTF-8
    Идентификатор кодека : S_TEXT/UTF8
    Идентификатор кодека/Информация : UTF-8 Plain Text
    Язык : English
    Default : Нет
    Forced : Нет

    Меню
    00:00:00.000 : en:00:00:00.000
    00:03:22.285 : en:00:03:22.285
    00:10:08.983 : en:00:10:08.983
    00:15:24.590 : en:00:15:24.590
    00:18:25.187 : en:00:18:25.187
    00:21:34.376 : en:00:21:34.376
    00:24:28.091 : en:00:24:28.091
    00:28:52.689 : en:00:28:52.689
    00:31:36.644 : en:00:31:36.644
    00:34:21.100 : en:00:34:21.100
    00:39:13.434 : en:00:39:13.434
    00:41:21.770 : en:00:41:21.770
    00:46:23.530 : en:00:46:23.530
    00:49:25.087 : en:00:49:25.087
    00:56:15.747 : en:00:56:15.747
    00:59:40.493 : en:00:59:40.493
    01:02:23.823 : en:01:02:23.823
    01:06:53.134 : en:01:06:53.134
    01:09:52.980 : en:01:09:52.980
    01:13:51.301 : en:01:13:51.301
    01:18:38.255 : en:01:18:38.255
    01:22:52.467 : en:01:22:52.467
    01:30:41.269 : en:01:30:41.269
    01:37:30.094 : en:01:37:30.094
    01:43:31.997 : en:01:43:31.997
    01:46:16.286 : en:01:46:16.286
    01:50:18.737 : en:01:50:18.737
    01:54:07.966 : en:01:54:07.966
    01:57:49.312 : en:01:57:49.312
    02:04:41.682 : en:02:04:41.682
    02:11:05.732 : en:02:11:05.732
    02:13:28.792 : en:02:13:28.792
9.1 из 10
голосов: 10
/10
/10
foster720p 30-12-2015, 11:25
Информация
Посетители, находящиеся в группе Гости, не могут оставлять комментарии к данной публикации.