Панель пользователя
Регистрация

Воспользуйтесь социальными сетями для входа на https://freerutor.com

vk odnoklassniki facebook mailru yandex google
Популярное
Счетчик
Голосуй за нас
VIP на сайте
Популярное
Товары интернет магазина
загрузка...

Новогодний рейс (1-4 серии из 4) (2014) HDTV 1080i

Новогодний рейс (1-4 серии из 4) (2014) HDTV 1080i
Участники торрент обмена
Сидов Пиров Скачали
0 0 242
Характеристика
Размер Файлы
9.13 GB
Релиз группа
Поделиться раздачей
Русские сериалы
Наименование: Новогодний рейс
Категория: Мелодрама
Произведено: Россия / Кинокомпания «Джи Пи»
Режиссер постановщик: Нана Джорджадзе
В главных ролях: Оксана Фандера, Светлана Ходченкова, Марат Башаров, Сергей Чонишвили, Дмитрий Миллер, Олег Долин, Ирина Гринёва, Мария Антонова, Любовь Аксёнова
Краткое описание: Новый год бывшая рок-певица, а ныне почтенная домохозяйка Вера Павловская собирается встречать в одиночестве. Ее муж, известный кинорежиссер Сергей Павловский, «улетел на досъемки», а на самом деле — к юной любовнице. Известной журналистке Стефании (Фане) предстоит провести праздничную ночь в обществе родителей своего жениха — положительного, милого, но нелюбимого Пети. Питерский архитектор Сергей Скворцов летит в Москву, чтобы соединиться со своей невестой Лорой. А юная библиотекарша из Питера Бронислава мечтает добиться любви Олега — сына Павловских, несмотря на то, что Олег счастливо и прочно женат. Однако, предновогодняя суета и неразбериха рушит все эти планы.
  • Видео данные: MPEG-TS, 5600 Кбит/с, 1920x1080
    Аудио данные: Русский (AC3, 2 ch, 384 Кбит/с), (MP2, 2 ch, 192 Кбит/с)
    Перевод: Оригинал
    Продолжительность: 4 х ~ 00:50:00
  • Новогодний рейс (1-4 серии из 4) (2014) HDTV 1080i Новогодний рейс (1-4 серии из 4) (2014) HDTV 1080i Новогодний рейс (1-4 серии из 4) (2014) HDTV 1080i
  • Общее
    Идентификатор : 1 (0x1)
    Полное имя : D:\Запись\Novogodnij rejs.HDTV(1080i).GeneralFilm\Novogodnij rejs.01.HDTV(1080i).GeneralFilm.ts
    Формат : MPEG-TS
    Размер файла : 2,43 Гбайт
    Продолжительность : 50 м.
    Режим общего битрейта : Переменный
    Общий поток : 6919 Кбит/сек

    Видео
    Идентификатор : 604 (0x25C)
    Идентификатор меню : 80 (0x50)
    Формат : AVC
    Формат/Информация : Advanced Video Codec
    Профиль формата : High@L4.0
    Параметр CABAC формата : Да
    Параметр ReFrames формата : 3 кадра
    Параметр GOP формата : M=4, N=32
    Идентификатор кодека : 27
    Продолжительность : 50 м.
    Битрейт : 5995 Кбит/сек
    Ширина : 1920 пикселей
    Высота : 1080 пикселей
    Соотношение сторон : 16:9
    Частота кадров : 25,000 кадров/сек
    Стандарт вещания : Component
    Цветовое пространство : YUV
    Субдискретизация насыщенности : 4:2:0
    Битовая глубина : 8 бит
    Тип развёртки : Чересстрочная
    Порядок развёртки : Верхнее поле первое
    Бит/(Пиксели*Кадры) : 0.116
    Размер потока : 2,10 Гбайт (87%)
    Основные цвета : BT.709
    Характеристики трансфера : BT.709
    Коэффициенты матрицы : BT.709

    Аудио #1
    Идентификатор : 607 (0x25F)
    Идентификатор меню : 80 (0x50)
    Формат : AC-3
    Формат/Информация : Audio Coding 3
    Расширение режима : CM (complete main)
    Параметр Endianness формата : Big
    Идентификатор кодека : 6
    Продолжительность : 50 м.
    Вид битрейта : Постоянный
    Битрейт : 384 Кбит/сек
    Каналы : 6 каналов
    Расположение каналов : Front: L C R, Side: L R, LFE
    Частота : 48,0 КГц
    Битовая глубина : 16 бит
    Метод сжатия : С потерями
    Задержка видео : -80 мс.
    Размер потока : 138 Мбайт (6%)
    Язык : Russian

    Аудио #2
    Идентификатор : 608 (0x260)
    Идентификатор меню : 80 (0x50)
    Формат : MPEG Audio
    Версия формата : Version 1
    Профиль формата : Layer 2
    Идентификатор кодека : 3
    Продолжительность : 50 м.
    Вид битрейта : Постоянный
    Битрейт : 192 Кбит/сек
    Каналы : 2 канала
    Частота : 48,0 КГц
    Метод сжатия : С потерями
    Задержка видео : -80 мс.
    Размер потока : 68,9 Мбайт (3%)
    Язык : Russian

    Общее
    Идентификатор : 1 (0x1)
    Полное имя : D:\Запись\Novogodnij rejs.HDTV(1080i).GeneralFilm\Novogodnij rejs.02.HDTV(1080i).GeneralFilm.ts
    Формат : MPEG-TS
    Размер файла : 2,14 Гбайт
    Продолжительность : 50 м.
    Режим общего битрейта : Переменный
    Общий поток : 6088 Кбит/сек

    Видео
    Идентификатор : 604 (0x25C)
    Идентификатор меню : 80 (0x50)
    Формат : AVC
    Формат/Информация : Advanced Video Codec
    Профиль формата : High@L4.0
    Параметр CABAC формата : Да
    Параметр ReFrames формата : 3 кадра
    Параметр GOP формата : M=4, N=32
    Идентификатор кодека : 27
    Продолжительность : 50 м.
    Битрейт : 5205 Кбит/сек
    Ширина : 1920 пикселей
    Высота : 1080 пикселей
    Соотношение сторон : 16:9
    Частота кадров : 25,000 кадров/сек
    Стандарт вещания : Component
    Цветовое пространство : YUV
    Субдискретизация насыщенности : 4:2:0
    Битовая глубина : 8 бит
    Тип развёртки : Чересстрочная
    Порядок развёртки : Верхнее поле первое
    Бит/(Пиксели*Кадры) : 0.100
    Размер потока : 1,83 Гбайт (85%)
    Основные цвета : BT.709
    Характеристики трансфера : BT.709
    Коэффициенты матрицы : BT.709

    Аудио #1
    Идентификатор : 607 (0x25F)
    Идентификатор меню : 80 (0x50)
    Формат : AC-3
    Формат/Информация : Audio Coding 3
    Расширение режима : CM (complete main)
    Параметр Endianness формата : Big
    Идентификатор кодека : 6
    Продолжительность : 50 м.
    Вид битрейта : Постоянный
    Битрейт : 384 Кбит/сек
    Каналы : 6 каналов
    Расположение каналов : Front: L C R, Side: L R, LFE
    Частота : 48,0 КГц
    Битовая глубина : 16 бит
    Метод сжатия : С потерями
    Задержка видео : -80 мс.
    Размер потока : 138 Мбайт (6%)
    Язык : Russian

    Аудио #2
    Идентификатор : 608 (0x260)
    Идентификатор меню : 80 (0x50)
    Формат : MPEG Audio
    Версия формата : Version 1
    Профиль формата : Layer 2
    Идентификатор кодека : 3
    Продолжительность : 50 м.
    Вид битрейта : Постоянный
    Битрейт : 192 Кбит/сек
    Каналы : 2 канала
    Частота : 48,0 КГц
    Метод сжатия : С потерями
    Задержка видео : -80 мс.
    Размер потока : 69,2 Мбайт (3%)
    Язык : Russian

    Общее
    Полное имя : D:\Запись\Novogodnij rejs.HDTV(1080i).GeneralFilm\Novogodnij rejs.HDTV(1080i).GeneralFilm.torrent
    Размер файла : 23,4 Кбайт
9.5 из 10
голосов: 4
/10
/10
grab777 29-12-2015, 20:59
Информация
Посетители, находящиеся в группе Гости, не могут оставлять комментарии к данной публикации.