Панель пользователя
Регистрация

Воспользуйтесь социальными сетями для входа на https://freerutor.com

vk odnoklassniki facebook mailru yandex google
Популярное
Счетчик
Голосуй за нас
VIP на сайте
Популярное
Товары интернет магазина
загрузка...

Страна ОЗ (2015) WEB-DLRip-AVC | Лицензия

Страна ОЗ (2015) WEB-DLRip-AVC | Лицензия
Участники торрент обмена
Сидов Пиров Скачали
1 0 3336
Характеристика
Размер Файлы
1.46 GB
Релиз группа
Поделиться раздачей
Фильмы (AVC)
Наименование: Страна ОЗ
Категория: Комедия
Произведено: Россия / Белое Зеркало
Режиссер постановщик: Василий Сигарев
В главных ролях: Яна Троянова, Гоша Куценко, Андрей Ильенков, Александр Баширов, Евгений Цыганов, Владимир Симонов, Инна Чурикова, Светлана Камынина, Юлия Снигирь, Алиса Хазанова
Краткое описание: Новый год в России — стихия неуправляемая и беспощадная. Именно в это волшебное время непостижимый колорит русской души проявляет себя во всей красе. Пока жители Екатеринбурга готовятся к главному национальному празднику и шинкуют оливье, Ленка Шабадинова спешит до боя курантов принять смену в киоске на улице Торфорезов. Но она даже не подозревает, что новогодняя ночь приготовила для нее свой безумный сценарий.
  • Видео данные: MPEG-4 AVC, 1710 Кбит/с, 1024x552
    Аудио данные: AC3, 6 ch, 384 Кбит/с
    Перевод: Оригинал [iTunes]
    Продолжительность: 01:39:48
  • Страна ОЗ (2015) WEB-DLRip-AVC | Лицензия Страна ОЗ (2015) WEB-DLRip-AVC | Лицензия Страна ОЗ (2015) WEB-DLRip-AVC | Лицензия
  • Общее
    Уникальный идентификатор : 192468901716634943781084727345284480500 (0x90CC29808FAE929486AAC39BEBE57DF4)
    Полное имя : D:download7tRaNa.0zz.2015.WEB-DLRip-AVC by schultz R.G.Resident.mkv
    Формат : Matroska
    Версия формата : Version 2
    Размер файла : 1,46 Гбайт
    Продолжительность : 1 ч. 39 м.
    Общий поток : 2094 Кбит/сек
    Дата кодирования : UTC 2015-12-26 05:34:57
    Программа кодирования : mkvmerge v6.1.0 ('Old Devil') built on Mar 4 2013 09:10:42
    Библиотека кодирования : libebml v1.3.0 + libmatroska v1.4.0

    Видео
    Идентификатор : 1
    Формат : AVC
    Формат/Информация : Advanced Video Codec
    Профиль формата : High@L4.1
    Параметр CABAC формата : Да
    Параметр ReFrames формата : 12 кадров
    Идентификатор кодека : V_MPEG4/ISO/AVC
    Продолжительность : 1 ч. 39 м.
    Битрейт : 1710 Кбит/сек
    Ширина : 1024 пикселя
    Высота : 552 пикселя
    Соотношение сторон : 1,85:1
    Режим частоты кадров : Постоянный
    Частота кадров : 24,000 кадра/сек
    Цветовое пространство : YUV
    Субдискретизация насыщенности : 4:2:0
    Битовая глубина : 8 бит
    Тип развёртки : Прогрессивная
    Бит/(Пиксели*Кадры) : 0.126
    Размер потока : 1,16 Гбайт (80%)
    Библиотека кодирования : x264 core 130 r2273 b3065e6
    Настройки программы : cabac=1 / ref=12 / deblock=1:-2:-2 / analyse=0x3:0x113 / me=umh / subme=11 / psy=1 / psy_rd=1.00:0.15 / mixed_ref=1 / me_range=32 / chroma_me=1 / trellis=2 / 8x8dct=1 / cqm=0 / deadzone=21,11 / fast_pskip=1 / chroma_qp_offset=-3 / threads=12 / lookahead_threads=3 / sliced_threads=0 / nr=0 / decimate=0 / interlaced=0 / bluray_compat=0 / constrained_intra=0 / bframes=13 / b_pyramid=2 / b_adapt=2 / b_bias=0 / direct=3 / weightb=1 / open_gop=0 / weightp=2 / keyint=240 / keyint_min=23 / scenecut=40 / intra_refresh=0 / rc_lookahead=40 / rc=2pass / mbtree=1 / bitrate=1710 / ratetol=1.0 / qcomp=0.60 / qpmin=0 / qpmax=69 / qpstep=4 / cplxblur=20.0 / qblur=0.5 / vbv_maxrate=17500 / vbv_bufsize=14000 / nal_hrd=none / ip_ratio=1.40 / aq=1:0.80
    Default : Да
    Forced : Нет

    Аудио
    Идентификатор : 2
    Формат : AC-3
    Формат/Информация : Audio Coding 3
    Расширение режима : CM (complete main)
    Параметр Endianness формата : Big
    Идентификатор кодека : A_AC3
    Продолжительность : 1 ч. 39 м.
    Вид битрейта : Постоянный
    Битрейт : 384 Кбит/сек
    Каналы : 6 каналов
    Расположение каналов : Front: L C R, Side: L R, LFE
    Частота : 48,0 КГц
    Битовая глубина : 16 бит
    Метод сжатия : С потерями
    Размер потока : 274 Мбайт (18%)
    Default : Да
    Forced : Нет
7.1 из 10
голосов: 7
/10
/10
grab777 26-12-2015, 14:11

mer-de | 26-12-2015, 14:54 | Статус: Оффлайн

Так вот он какой, ген духовности...
Информация
Посетители, находящиеся в группе Гости, не могут оставлять комментарии к данной публикации.