Панель пользователя
Регистрация

Воспользуйтесь социальными сетями для входа на https://freerutor.com

vk odnoklassniki facebook mailru yandex google
Популярное
Счетчик
Голосуй за нас
VIP на сайте
Популярное
Товары интернет магазина
загрузка...

Фантастическая четверка / Fantastic Four (2015) BDRip-AVC | Лицензия

Фантастическая четверка / Fantastic Four (2015) BDRip-AVC | Лицензия
Участники торрент обмена
Сидов Пиров Скачали
2 0 356
Характеристика
Размер Файлы
2.12 GB
Релиз группа
Поделиться раздачей
Фильмы (AVC)
Наименование: Фантастическая четверка
Оригинальное наименование: Fantastic Four
Категория: фантастика, боевик, приключения
Произведено: США / 20th Century Fox Film Corporation
Режиссер постановщик: Джошуа Транк
В главных ролях: Майлз Теллер, Майкл Б. Джордан, Кейт Мара, Джейми Белл, Тоби Кеббелл, Рег Э. Кэти, Тим Блейк Нельсон, Джошуа Монтес, Дэн Кастелланета, Оуэн Джадж
Краткое описание: История о четырех молодых астронавтах, которые отважились на авантюрное путешествие в параллельное измерение для исследования аномальной волны космической энергии. Вернувшись из путешествия, они обнаружили у себя суперспособности, которые навсегда изменили их жизни…
  • Видео данные: MPEG-4 AVC, 1701 Кбит/с, 1024x428
    Аудио данные: Русский, украинский, английский (AC3, 6 ch, 448 Кбит/с)
    Перевод: Дублированный [Лицензия]
    Субтитры: Русские, английские, украинские
    Продолжительность: 01:39:58
  • Фантастическая четверка / Fantastic Four (2015) BDRip-AVC | Лицензия Фантастическая четверка / Fantastic Four (2015) BDRip-AVC | Лицензия Фантастическая четверка / Fantastic Four (2015) BDRip-AVC | Лицензия
  • General
    Unique ID : 244493968429136866415726584079540222677 (0xB7EFD35418EE0AECAE72AC88ACCEFAD5)
    Complete name : C:\Fantastic.Four.2015.D.BDRip.AVC.ExKinoRay.mkv
    Format : Matroska
    Format version : Version 4 / Version 2
    File size : 2.12 GiB
    Duration : 1h 39mn
    Overall bit rate : 3 043 Kbps
    Movie name : Fantastic Four 2015 from ExKinoRay
    Encoded date : UTC 2015-12-25 02:10:35
    Writing application : mkvmerge v6.6.0 ('The Edge Of The In Between') built on Dec 1 2013 17:55:00
    Writing library : libebml v1.3.0 + libmatroska v1.4.1

    Video
    ID : 1
    Format : AVC
    Format/Info : Advanced Video Codec
    Format profile : High@L4.1
    Format settings, CABAC : Yes
    Format settings, ReFrames : 12 frames
    Codec ID : V_MPEG4/ISO/AVC
    Duration : 1h 39mn
    Bit rate : 1 701 Kbps
    Width : 1 024 pixels
    Height : 428 pixels
    Display aspect ratio : 2.40:1
    Frame rate mode : Constant
    Frame rate : 23.976 fps
    Color space : YUV
    Chroma subsampling : 4:2:0
    Bit depth : 8 bits
    Scan type : Progressive
    Bits/(Pixel*Frame) : 0.162
    Stream size : 1.14 GiB (54%)
    Title : Enigma
    Writing library : x264 core 133 r2334 a3ac64b
    Encoding settings : cabac=1 / ref=12 / deblock=1:-2:-2 / analyse=0x3:0x113 / me=umh / subme=10 / psy=1 / psy_rd=1.05:0.15 / mixed_ref=1 / me_range=32 / chroma_me=1 / trellis=2 / 8x8dct=1 / cqm=0 / deadzone=21,11 / fast_pskip=0 / chroma_qp_offset=-3 / threads=12 / lookahead_threads=3 / sliced_threads=0 / nr=0 / decimate=0 / interlaced=0 / bluray_compat=0 / constrained_intra=0 / bframes=10 / b_pyramid=2 / b_adapt=2 / b_bias=0 / direct=3 / weightb=1 / open_gop=0 / weightp=2 / keyint=240 / keyint_min=23 / scenecut=40 / intra_refresh=0 / rc=2pass / mbtree=0 / bitrate=1701 / ratetol=1.0 / qcomp=0.60 / qpmin=0 / qpmax=51 / qpstep=4 / cplxblur=20.0 / qblur=0.5 / ip_ratio=1.40 / pb_ratio=1.30 / aq=1:1.00
    Language : English
    Default : Yes
    Forced : No
    Color primaries : BT.709
    Transfer characteristics : BT.709
    Matrix coefficients : BT.709

    Audio #1
    ID : 2
    Format : AC-3
    Format/Info : Audio Coding 3
    Mode extension : CM (complete main)
    Format settings, Endianness : Big
    Codec ID : A_AC3
    Duration : 1h 39mn
    Bit rate mode : Constant
    Bit rate : 448 Kbps
    Channel(s) : 6 channels
    Channel positions : Front: L C R, Side: L R, LFE
    Sampling rate : 48.0 KHz
    Bit depth : 16 bits
    Compression mode : Lossy
    Stream size : 320 MiB (15%)
    Title : Dub (Лицензия)
    Language : Russian
    Default : Yes
    Forced : No

    Audio #2
    ID : 3
    Format : AC-3
    Format/Info : Audio Coding 3
    Mode extension : CM (complete main)
    Format settings, Endianness : Big
    Codec ID : A_AC3
    Duration : 1h 39mn
    Bit rate mode : Constant
    Bit rate : 448 Kbps
    Channel(s) : 6 channels
    Channel positions : Front: L C R, Side: L R, LFE
    Sampling rate : 48.0 KHz
    Bit depth : 16 bits
    Compression mode : Lossy
    Stream size : 320 MiB (15%)
    Language : Ukrainian
    Default : No
    Forced : No

    Audio #3
    ID : 4
    Format : AC-3
    Format/Info : Audio Coding 3
    Mode extension : CM (complete main)
    Format settings, Endianness : Big
    Codec ID : A_AC3
    Duration : 1h 39mn
    Bit rate mode : Constant
    Bit rate : 448 Kbps
    Channel(s) : 6 channels
    Channel positions : Front: L C R, Side: L R, LFE
    Sampling rate : 48.0 KHz
    Bit depth : 16 bits
    Compression mode : Lossy
    Stream size : 320 MiB (15%)
    Language : English
    Default : No
    Forced : No

    Text #1
    ID : 5
    Format : UTF-8
    Codec ID : S_TEXT/UTF8
    Codec ID/Info : UTF-8 Plain Text
    Title : Forced, iTunes
    Language : Russian
    Default : Yes
    Forced : No

    Text #2
    ID : 6
    Format : UTF-8
    Codec ID : S_TEXT/UTF8
    Codec ID/Info : UTF-8 Plain Text
    Title : iTunes
    Language : Russian
    Default : No
    Forced : No

    Text #3
    ID : 7
    Format : UTF-8
    Codec ID : S_TEXT/UTF8
    Codec ID/Info : UTF-8 Plain Text
    Title : iTunes
    Language : Ukrainian
    Default : No
    Forced : No

    Text #4
    ID : 8
    Format : UTF-8
    Codec ID : S_TEXT/UTF8
    Codec ID/Info : UTF-8 Plain Text
    Language : English
    Default : No
    Forced : No

    Text #5
    ID : 9
    Format : UTF-8
    Codec ID : S_TEXT/UTF8
    Codec ID/Info : UTF-8 Plain Text
    Title : SDH
    Language : English
    Default : No
    Forced : No

    Menu
    00:00:00.000 : en:00:00:00.000
    00:02:30.025 : en:00:02:30.025
    00:07:22.609 : en:00:07:22.609
    00:11:00.159 : en:00:11:00.159
    00:14:59.524 : en:00:14:59.524
    00:17:57.785 : en:00:17:57.785
    00:22:03.322 : en:00:22:03.322
    00:24:44.483 : en:00:24:44.483
    00:27:49.877 : en:00:27:49.877
    00:30:19.776 : en:00:30:19.776
    00:34:56.011 : en:00:34:56.011
    00:38:16.377 : en:00:38:16.377
    00:43:10.087 : en:00:43:10.087
    00:48:16.060 : en:00:48:16.060
    00:51:35.301 : en:00:51:35.301
    00:54:27.055 : en:00:54:27.055
    00:57:18.101 : en:00:57:18.101
    01:00:27.833 : en:01:00:27.833
    01:04:34.913 : en:01:04:34.913
    01:08:04.497 : en:01:08:04.497
    01:12:08.282 : en:01:12:08.282
    01:15:09.964 : en:01:15:09.964
    01:19:10.162 : en:01:19:10.162
    01:22:16.515 : en:01:22:16.515
    01:24:49.543 : en:01:24:49.543
    01:27:01.341 : en:01:27:01.341
    01:30:49.569 : en:01:30:49.569
    01:33:00.450 : en:01:33:00.450
5.5 из 10
голосов: 4
/10
/10
grab777 25-12-2015, 08:59
Информация
Посетители, находящиеся в группе Гости, не могут оставлять комментарии к данной публикации.