Панель пользователя
Регистрация

Воспользуйтесь социальными сетями для входа на https://freerutor.com

vk odnoklassniki facebook mailru yandex google
Популярное
Счетчик
Голосуй за нас
VIP на сайте
Популярное
Товары интернет магазина
загрузка...

Лютер / Luther (4 сезон: 1-2 серии из 2) (2015) HDTV 720р | Gears Media

Лютер / Luther (4 сезон: 1-2 серии из 2) (2015) HDTV 720р | Gears Media
Участники торрент обмена
Сидов Пиров Скачали
0 0 62
Характеристика
Размер Файлы
2.34 GB
Релиз группа
Поделиться раздачей
Заруб. сериалы (720P,1080P)
Наименование: Лютер
Оригинальное наименование: Luther
Категория: драма, криминал, детектив
Произведено: Великобритания, BBC
Режиссер постановщик: Сэм Миллер
В главных ролях: Идрис Эльба, Рут Уилсон, Стивен Макинтош, Индира Варма, Саския Ривз, Уоррен Браун, Пол МакГэнн и Дермот Краули и др
Краткое описание: Драматическая психологическая картина, в которой рассказывается о детективе, обладающем гениальными способностями в своём деле, однако скрывающем своих внутренних демонов. На самом деле он способен на такие же страшные преступления, что и те отбросы общества, за которыми он охотится…
  • Видео данные: X264, 1280x720, 2500 kb/s
    Аудио данные: Russian ( АС3, 2 ch, 384 Кбит/с) English ( АС3, 6 ch, 192 Кбит/с)
    Перевод: Любительский (двухголосый) Gears Media
    Продолжительность: ~ 01:00:00
  • Лютер / Luther (4 сезон: 1-2 серии из 2) (2015) HDTV 720р | Gears Media Лютер / Luther (4 сезон: 1-2 серии из 2) (2015) HDTV 720р | Gears Media Лютер / Luther (4 сезон: 1-2 серии из 2) (2015) HDTV 720р | Gears Media
  • Format : Matroska
    Format version : Version 4 / Version 2
    File size : 1.09 GiB
    Duration : 57mn 32s
    Overall bit rate : 2 724 Kbps
    Encoded date : UTC 2015-12-23 23:30:52
    Writing application : mkvmerge v8.6.1 ('Flying') 64bit
    Writing library : libebml v1.3.3 + libmatroska v1.4.4
    Video
    ID : 1
    Format : AVC
    Format/Info : Advanced Video Codec
    Format profile : High@L4.1
    Format settings, CABAC : Yes
    Format settings, ReFrames : 5 frames
    Codec ID : V_MPEG4/ISO/AVC
    Duration : 57mn 32s
    Bit rate : 2 146 Kbps
    Width : 1 280 pixels
    Height : 720 pixels
    Display aspect ratio : 16:9
    Frame rate mode : Constant
    Frame rate : 25.000 fps
    Color space : YUV
    Chroma subsampling : 4:2:0
    Bit depth : 8 bits
    Scan type : Progressive
    Bits/(Pixel*Frame) : 0.093
    Stream size : 883 MiB (79%)
    Writing library : x264 core 148 r2638 7599210
    Encoding settings : cabac=1 / ref=5 / deblock=1:0:0 / analyse=0x3:0x113 / me=umh / subme=8 / psy=1 / psy_rd=1.00:0.00 / mixed_ref=1 / me_range=16 / chroma_me=1 / trellis=1 / 8x8dct=1 / cqm=0 / deadzone=21,11 / fast_pskip=1 / chroma_qp_offset=-2 / threads=12 / lookahead_threads=2 / sliced_threads=0 / nr=0 / decimate=1 / interlaced=0 / bluray_compat=0 / constrained_intra=0 / bframes=3 / b_pyramid=2 / b_adapt=2 / b_bias=0 / direct=3 / weightb=1 / open_gop=0 / weightp=2 / keyint=250 / keyint_min=25 / scenecut=40 / intra_refresh=0 / rc_lookahead=50 / rc=crf / mbtree=1 / crf=18.0 / qcomp=0.60 / qpmin=0 / qpmax=69 / qpstep=4 / ip_ratio=1.40 / aq=1:1.00
    Language : English
    Default : Yes
    Forced : No
    Audio #1
    ID : 2
    Format : AC-3
    Format/Info : Audio Coding 3
    Mode extension : CM (complete main)
    Format settings, Endianness : Big
    Codec ID : A_AC3
    Duration : 57mn 32s
    Bit rate mode : Constant
    Bit rate : 384 Kbps
    Channel(s) : 2 channels
    Channel positions : Front: L R
    Sampling rate : 48.0 KHz
    Frame rate : 31.250 fps (1536 spf)
    Compression mode : Lossy
    Stream size : 158 MiB (14%)
    Title : Gears Media
    Language : Russian
    Default : Yes
    Forced : Yes
    Audio #2
    ID : 3
    Format : AC-3
    Format/Info : Audio Coding 3
    Mode extension : CM (complete main)
    Format settings, Endianness : Big
    Codec ID : A_AC3
    Duration : 57mn 32s
    Bit rate mode : Constant
    Bit rate : 192 Kbps
    Channel(s) : 2 channels
    Channel positions : Front: L R
    Sampling rate : 48.0 KHz
    Frame rate : 31.250 fps (1536 spf)
    Compression mode : Lossy
    Stream size : 79.0 MiB (7%)
    Language : English
    Default : No
    Forced : No
10.0 из 10
голосов: 1
/10
/10
Раздачу отредактировал: OLEG270877 - 3-01-2016, 07:47
По причине: (+2 серия)
OLEG270877 3-01-2016, 07:46
Информация
Посетители, находящиеся в группе Гости, не могут оставлять комментарии к данной публикации.