Панель пользователя
Регистрация

Воспользуйтесь социальными сетями для входа на https://freerutor.com

vk odnoklassniki facebook mailru yandex google
Популярное
Счетчик
Голосуй за нас
VIP на сайте
Популярное
Товары интернет магазина
загрузка...

Мирт обыкновенный (1-2 серии из 2) (2015) HDTV 1080i

Мирт обыкновенный (1-2 серии из 2) (2015) HDTV 1080i
Участники торрент обмена
Сидов Пиров Скачали
0 0 62
Характеристика
Размер Файлы
10.67 GB
Поделиться раздачей
Русские сериалы
Наименование: Мирт обыкновенный
Категория: Мелодрама
Произведено: Россия / Кинокомпания Русское
Режиссер постановщик: Александр Хван
В главных ролях: Лидия Милюзина, Юлия Бурлова, Илья Алексеев, Валерия Бурдужа, Рита Дьяченкова, Сергей Подольный, Арсений Загоскин, Сергей Тэсслер
Краткое описание: На плечах юной Иры Калачевой держится вся семья. Девушка учится, работает, совершенно забыв о себе, и это давно стало привычным — и для Иры, и для всех домашних. Однажды героиня получает шанс вырваться из замкнутого круга: уехать в Москву за любимым парнем и начать новую жизнь. Но чувство долга пересиливает, и Ира жертвует личным счастьем. Годы идут, девушка становится совсем взрослой, но юношеская влюбленность так и осталась единственным ярким пятном в жизни Ирины. Улыбнется ли судьба снова, и какой ценой достанется Ире настоящее счастье?
  • Видео данные: MPEG-TS, 7900 Кбит/с, 1920x1080
    Аудио данные: MP2, 2 ch, 192 Кбит/с
    Перевод: Оригинал
    Продолжительность: 2 x ~ 01:30:00
  • Мирт обыкновенный (1-2 серии из 2) (2015) HDTV 1080i Мирт обыкновенный (1-2 серии из 2) (2015) HDTV 1080i Мирт обыкновенный (1-2 серии из 2) (2015) HDTV 1080i
  • General
    ID : 1 (0x1)
    Complete name : Mirt.obyknovenny.01.2015.HDTV.1080i.ts
    Format : MPEG-TS
    File size : 5.36 GiB
    Duration : 1h 30mn
    Overall bit rate mode : Variable
    Overall bit rate : 8 480 Kbps

    Video
    ID : 2911 (0xB5F)
    Menu ID : 1009 (0x3F1)
    Format : AVC
    Format/Info : Advanced Video Codec
    Format profile : High@L4
    Format settings, CABAC : Yes
    Format settings, ReFrames : 4 frames
    Codec ID : 27
    Duration : 1h 30mn
    Bit rate : 7 867 Kbps
    Width : 1 920 pixels
    Height : 1 080 pixels
    Display aspect ratio : 16:9
    Frame rate : 25.000 fps
    Color space : YUV
    Chroma subsampling : 4:2:0
    Bit depth : 8 bits
    Scan type : MBAFF
    Scan order : Top Field First
    Bits/(Pixel*Frame) : 0.152
    Stream size : 4.97 GiB (93%)

    Audio
    ID : 2912 (0xB60)
    Menu ID : 1009 (0x3F1)
    Format : MPEG Audio
    Format version : Version 1
    Format profile : Layer 2
    Codec ID : 3
    Duration : 1h 30mn
    Bit rate mode : Constant
    Bit rate : 192 Kbps
    Channel(s) : 2 channels
    Sampling rate : 48.0 KHz
    Compression mode : Lossy
    Stream size : 124 MiB (2%)
    Language : Russian
8.4 из 10
голосов: 11
/10
/10
grab777 20-12-2015, 06:01
Информация
Посетители, находящиеся в группе Гости, не могут оставлять комментарии к данной публикации.