Панель пользователя
Регистрация

Воспользуйтесь социальными сетями для входа на https://freerutor.com

vk odnoklassniki facebook mailru yandex google
Популярное
Счетчик
Голосуй за нас
VIP на сайте
Популярное
Товары интернет магазина
загрузка...

Воспоминания о будущем / Testament of Youth (2014) HDRip-AVC | Лицензия

Воспоминания о будущем / Testament of Youth (2014) HDRip-AVC | Лицензия
Участники торрент обмена
Сидов Пиров Скачали
1 0 709
Характеристика
Размер Файлы
2.48 GB
Релиз группа
Поделиться раздачей
Фильмы (AVC)
Наименование: Воспоминания о будущем
Оригинальное наименование: Testament of Youth
Категория: Драма, военный, биография, история
Произведено: Великобритания / BBC Films, Heyday Films
Режиссер постановщик: Джеймс Кент
В главных ролях: Алисия Викандер, Кит Харингтон, Эмили Уотсон, Хейли Этвелл, Колин Морган, Доминик Уэст, Миранда Ричардсон, Тэрон Эджертон, Джоэнна Скэнлэн, Рэйчел Редфорд
Краткое описание: Британская женщина вспоминает о том, как она жила во времена Первой мировой войны. Ее юность, мечты, первую любовь — все это разрушила война.
  • Видео данные: MPEG-4 AVC, 2350 Кбит/с, 1024x432
    Аудио данные: Русский (AC3, 6 ch, 384 Кбит/с)
    Перевод: Дублированный [iTunes]
    Продолжительность: 02:09:44
  • Воспоминания о будущем / Testament of Youth (2014) HDRip-AVC | Лицензия Воспоминания о будущем / Testament of Youth (2014) HDRip-AVC | Лицензия Воспоминания о будущем / Testament of Youth (2014) HDRip-AVC | Лицензия
  • Воспоминания о будущемTestament.of.Youth.2014_AVC_HDRip_[scarabey.org].mkv
    Format : Matroska
    Format version : Version 2
    File size : 2.48 GiB
    Duration : 2h 9mn
    Overall bit rate : 2 735 Kbps
    Encoded date : UTC 2015-06-14 08:05:27
    Writing application : mkvmerge v6.1.0 ('Old Devil') built on Mar 4 2013 09:10:42
    Writing library : libebml v1.3.0 + libmatroska v1.4.0

    Video
    ID : 1
    Format : AVC
    Format/Info : Advanced Video Codec
    Format profile : High@L4.1
    Format settings, CABAC : Yes
    Format settings, ReFrames : 8 frames
    Codec ID : V_MPEG4/ISO/AVC
    Duration : 2h 9mn
    Bit rate : 2 350 Kbps
    Width : 1 024 pixels
    Height : 432 pixels
    Display aspect ratio : 2.35:1
    Original display aspect ratio : 2.35:1
    Frame rate mode : Constant
    Frame rate : 23.976 fps
    Color space : YUV
    Chroma subsampling : 4:2:0
    Bit depth : 8 bits
    Scan type : Progressive
    Bits/(Pixel*Frame) : 0.222
    Stream size : 2.08 GiB (84%)
    Writing library : x264 core 138 r2356 a1d3d17
    Encoding settings : cabac=1 / ref=8 / deblock=1:-3:-2 / analyse=0x3:0x113 / me=umh / subme=10 / psy=1 / psy_rd=1.00:0.05 / mixed_ref=1 / me_range=32 / chroma_me=1 / trellis=2 / 8x8dct=1 / cqm=0 / deadzone=21,11 / fast_pskip=0 / chroma_qp_offset=-3 / threads=12 / lookahead_threads=2 / sliced_threads=0 / nr=0 / decimate=0 / interlaced=0 / bluray_compat=0 / constrained_intra=0 / bframes=8 / b_pyramid=2 / b_adapt=2 / b_bias=0 / direct=3 / weightb=1 / open_gop=0 / weightp=2 / keyint=240 / keyint_min=24 / scenecut=40 / intra_refresh=0 / rc_lookahead=40 / rc=2pass / mbtree=1 / bitrate=2350 / ratetol=1.0 / qcomp=0.60 / qpmin=0 / qpmax=69 / qpstep=4 / cplxblur=20.0 / qblur=0.5 / ip_ratio=1.40 / aq=1:1.00
    Default : Yes
    Forced : No

    Audio
    ID : 2
    Format : AC-3
    Format/Info : Audio Coding 3
    Mode extension : CM (complete main)
    Format settings, Endianness : Big
    Codec ID : A_AC3
    Duration : 2h 9mn
    Bit rate mode : Constant
    Bit rate : 384 Kbps
    Channel(s) : 6 channels
    Channel positions : Front: L C R, Side: L R, LFE
    Sampling rate : 48.0 KHz
    Bit depth : 16 bits
    Compression mode : Lossy
    Stream size : 356 MiB (14%)
    Default : Yes
    Forced : No
10.0 из 10
голосов: 1
/10
/10
grab777 19-12-2015, 18:41
Информация
Посетители, находящиеся в группе Гости, не могут оставлять комментарии к данной публикации.