Панель пользователя
Регистрация

Воспользуйтесь социальными сетями для входа на https://freerutor.com

vk odnoklassniki facebook mailru yandex google
Популярное
Счетчик
Голосуй за нас
VIP на сайте
Популярное
Товары интернет магазина
загрузка...

128 ударов сердца в минуту / We Are Your Friends (2015) HDRip-AVC | Лицензия

128 ударов сердца в минуту / We Are Your Friends (2015) HDRip-AVC | Лицензия
Участники торрент обмена
Сидов Пиров Скачали
1 0 388
Характеристика
Размер Файлы
2.18 GB
Релиз группа
Поделиться раздачей
Фильмы (AVC)
Наименование: 128 ударов сердца в минуту
Оригинальное наименование: We Are Your Friends
Категория: Драма, мелодрама, музыка
Произведено: Великобритания, Франция, США / Studio Canal, Working Title Films, PolyGram Filmed Entertainment
Режиссер постановщик: Макс Джозеф
В главных ролях: Зак Эфрон, Уэс Бентли, Эмили Ратаковски, Джонни Уэстон, Шайло Фернандес, Алекс Шеффер, Джон Бернтал, Алисия Коппола, Уайли М. Пикетт, Джон Абрахамс
Краткое описание: Лос-Анджелес, Калифорния — это мир бесконечных возможностей днем и нереальных голливудских вечеринок ночью. Оба этих мира стремится покорить молодой DJ по имени Коул, неустанно работающий над своим пробивным треком, который должен взорвать весь мир. Его замечает и берет под крыло опытный продюсер Джеймс, но все становится крайне запутанным, когда Коул влюбляется в молодую подружку Джеймса. Вскоре перед Коулом встает непростой выбор между любовью, верностью, старыми друзьями и будущим, о котором он так мечтает.
  • Видео данные: MPEG-4 AVC, 2864 Кбит/с, 1024x552
    Аудио данные: Русский (АС3, 6 ch, 384 Кбит/с)
    Перевод: Дублированный [iTunes]
    Продолжительность: 01:36:03
  • 128 ударов сердца в минуту / We Are Your Friends (2015) HDRip-AVC | Лицензия 128 ударов сердца в минуту / We Are Your Friends (2015) HDRip-AVC | Лицензия 128 ударов сердца в минуту / We Are Your Friends (2015) HDRip-AVC | Лицензия
  • General
    Unique ID : 182843314042375783635064974049669746880 (0x898E5763AA4E01E9AD2F7017559B10C0)
    Complete name : D:downloadWe.Are.Your.Friends.2015.HDRip-AVC by schultz R.G.Resident.mkv
    Format : Matroska
    Format version : Version 2
    File size : 2.18 GiB
    Duration : 1h 36mn
    Overall bit rate : 3 249 Kbps
    Encoded date : UTC 2015-12-16 08:53:56
    Writing application : mkvmerge v6.1.0 ('Old Devil') built on Mar 4 2013 09:10:42
    Writing library : libebml v1.3.0 + libmatroska v1.4.0

    Video
    ID : 1
    Format : AVC
    Format/Info : Advanced Video Codec
    Format profile : High@L4.1
    Format settings, CABAC : Yes
    Format settings, ReFrames : 12 frames
    Codec ID : V_MPEG4/ISO/AVC
    Duration : 1h 36mn
    Bit rate : 2 864 Kbps
    Width : 1 024 pixels
    Height : 552 pixels
    Display aspect ratio : 1.855
    Frame rate : 24.000 fps
    Color space : YUV
    Chroma subsampling : 4:2:0
    Bit depth : 8 bits
    Scan type : Progressive
    Bits/(Pixel*Frame) : 0.211
    Stream size : 1.88 GiB (86%)
    Writing library : x264 core 130 r2273 b3065e6
    Encoding settings : cabac=1 / ref=12 / deblock=1:-2:-2 / analyse=0x3:0x113 / me=umh / subme=11 / psy=1 / psy_rd=1.00:0.15 / mixed_ref=1 / me_range=32 / chroma_me=1 / trellis=2 / 8x8dct=1 / cqm=0 / deadzone=21,11 / fast_pskip=1 / chroma_qp_offset=-3 / threads=12 / lookahead_threads=2 / sliced_threads=0 / nr=0 / decimate=0 / interlaced=0 / bluray_compat=0 / constrained_intra=0 / bframes=9 / b_pyramid=2 / b_adapt=2 / b_bias=0 / direct=3 / weightb=1 / open_gop=0 / weightp=2 / keyint=240 / keyint_min=23 / scenecut=40 / intra_refresh=0 / rc_lookahead=40 / rc=2pass / mbtree=1 / bitrate=2864 / ratetol=1.0 / qcomp=0.60 / qpmin=0 / qpmax=69 / qpstep=4 / cplxblur=20.0 / qblur=0.5 / vbv_maxrate=17500 / vbv_bufsize=14000 / nal_hrd=none / ip_ratio=1.40 / aq=1:0.80
    Default : Yes
    Forced : No

    Audio
    ID : 2
    Format : AC-3
    Format/Info : Audio Coding 3
    Mode extension : CM (complete main)
    Codec ID : A_AC3
    Duration : 1h 36mn
    Bit rate mode : Constant
    Bit rate : 384 Kbps
    Channel(s) : 6 channels
    Channel positions : Front: L C R, Side: L R, LFE
    Sampling rate : 48.0 KHz
    Bit depth : 16 bits
    Compression mode : Lossy
    Stream size : 264 MiB (12%)
    Default : Yes
    Forced : No
10.0 из 10
голосов: 3
/10
/10
grab777 19-12-2015, 13:34
Информация
Посетители, находящиеся в группе Гости, не могут оставлять комментарии к данной публикации.