Панель пользователя
Регистрация

Воспользуйтесь социальными сетями для входа на https://freerutor.com

vk odnoklassniki facebook mailru yandex google
Популярное
Счетчик
Голосуй за нас
VIP на сайте
Популярное
Товары интернет магазина
загрузка...

Зеро 2 / Zero II (2010) BDRip 1080p

Зеро 2 / Zero II (2010) BDRip 1080p
Участники торрент обмена
Сидов Пиров Скачали
1 0 77
Характеристика
Размер Файлы
8.38 GB
Поделиться раздачей
Фильмы (720,1080,Blu-Ray)
Наименование: Зеро 2
Оригинальное наименование: Zero II
Категория: Триллер, комедия, криминал
Произведено: Литва / Kinokultas
Режиссер постановщик: Эмилис Веливис
В главных ролях: Кестутис Якштас, Рамунас Рудокас, Витаутас Шапранаускас, Аушра Штуките, Инга Янкаускайте, Андрюс Жюраускас, Миндаугас Папинигис, Жемина Ашмонтайте, Донатас Иванаускас, Ауримас Мелисиус
Краткое описание: Когда криминальный мир сталкивается с шоу-бизнесом, наемные убийцы и приятели Макс и Сильвестр внезапно оказываются вовлеченными в гущу странных событий и драматических перипетий на грани абсурда. Под натиском дешевых интриг и силиконовых грудей они должны выполнить поставленную перед ними задачу — вернуть исчезнувший груз наркотиков и наркокурьера, убить кучу людей и любить опасных женщин.
  • Видео данные: MPEG-4 AVC, 13.0 Мбит/с, 1920x800
    Аудио данные: Русский, немецкий (AC3, 2 ch, 192 Кбит/с)
    Перевод: Профессиональный одноголосый [VSI "Kino Kultas"]
    Субтитры: Русские
    Продолжительность: 01:25:54
  • Зеро 2 / Zero II (2010) BDRip 1080p Зеро 2 / Zero II (2010) BDRip 1080p Зеро 2 / Zero II (2010) BDRip 1080p
  • Общее
    Уникальный идентификатор : 210767179174494168823595802484630768635 (0x9E90483C124FD30B9DEB517056324BFB)
    Полное имя : E:\Русская Колекция\Zero.2.2010.x264.BDRip.1080p..mkv
    Формат : Matroska
    Версия формата : Version 2
    Размер файла : 8,38 Гбайт
    Продолжительность : 1 ч. 25 м.
    Общий поток : 14,0 Мбит/сек
    Название фильма : Zero II - Shoot 'Em Down.2010. Release for HDCLUB
    Дата кодирования : UTC 2011-09-05 21:42:50
    Программа кодирования : mkvmerge v4.3.0 ('Escape from the Island') сборка от Sep 5 2010 10:30:51
    Библиотека кодирования : libebml v1.0.0 + libmatroska v1.0.0

    Видео
    Идентификатор : 1
    Формат : AVC
    Формат/Информация : Advanced Video Codec
    Профиль формата : High@L4.1
    Параметр CABAC формата : Да
    Параметр ReFrames формата : 5 кадров
    Режим смешивания : Header stripping
    Идентификатор кодека : V_MPEG4/ISO/AVC
    Продолжительность : 1 ч. 25 м.
    Битрейт : 13,0 Мбит/сек
    Ширина : 1920 пикселей
    Высота : 800 пикселей
    Соотношение сторон : 2,40:1
    Режим частоты кадров : Постоянный
    Частота кадров : 24,000 кадра/сек
    Цветовое пространство : YUV
    Субдискретизация насыщенности : 4:2:0
    Битовая глубина : 8 бит
    Тип развёртки : Прогрессивная
    Бит/(Пиксели*Кадры) : 0.353
    Размер потока : 7,64 Гбайт (91%)
    Заголовок : Zero II
    Библиотека кодирования : x264 core 115 r1995 c1e60b9
    Настройки программы : cabac=1 / ref=5 / deblock=1:0:0 / analyse=0x3:0x133 / me=hex / subme=7 / psy=1 / psy_rd=1.00:0.00 / mixed_ref=1 / me_range=16 / chroma_me=1 / trellis=1 / 8x8dct=1 / cqm=0 / deadzone=21,11 / fast_pskip=1 / chroma_qp_offset=-2 / threads=4 / sliced_threads=0 / nr=0 / decimate=1 / interlaced=0 / bluray_compat=0 / constrained_intra=0 / bframes=3 / b_pyramid=2 / b_adapt=2 / b_bias=0 / direct=1 / weightb=1 / open_gop=0 / weightp=2 / keyint=250 / keyint_min=24 / scenecut=40 / intra_refresh=0 / rc_lookahead=40 / rc=2pass / mbtree=1 / bitrate=12999 / ratetol=1.0 / qcomp=0.60 / qpmin=10 / qpmax=51 / qpstep=4 / cplxblur=20.0 / qblur=0.5 / ip_ratio=1.40 / aq=1:1.00
    Default : Да
    Forced : Нет

    Аудио #1
    Идентификатор : 2
    Формат : AC-3
    Формат/Информация : Audio Coding 3
    Расширение режима : CM (complete main)
    Параметр Endianness формата : Big
    Режим смешивания : Header stripping
    Идентификатор кодека : A_AC3
    Продолжительность : 1 ч. 25 м.
    Вид битрейта : Постоянный
    Битрейт : 192 Кбит/сек
    Каналы : 2 канала
    Расположение каналов : Front: L R
    Частота : 48,0 КГц
    Битовая глубина : 16 бит
    Метод сжатия : С потерями
    Размер потока : 118 Мбайт (1%)
    Заголовок : AC3 2.0 192 kbps
    Язык : Russian
    Default : Да
    Forced : Нет

    Аудио #2
    Идентификатор : 4
    Формат : DTS
    Формат/Информация : Digital Theater Systems
    Режим : 16
    Параметр Endianness формата : Big
    Режим смешивания : Header stripping
    Идентификатор кодека : A_DTS
    Продолжительность : 1 ч. 25 м.
    Вид битрейта : Постоянный
    Битрейт : 768 Кбит/сек
    Каналы : 6 каналов
    Расположение каналов : Front: L C R, Side: L R, LFE
    Частота : 48,0 КГц
    Битовая глубина : 16 бит
    Метод сжатия : С потерями
    Задержка видео : 11 мс.
    Размер потока : 472 Мбайт (5%)
    Заголовок : (DTS 5.1,48 kHz,755 kbps)
    Язык : Lithuanian
    Default : Нет
    Forced : Нет

    Текст
    Идентификатор : 3
    Формат : PGS
    Режим смешивания : zlib
    Идентификатор кодека : S_HDMV/PGS
    Идентификатор кодека/Информация : The same subtitle format used on BDs/HD-DVDs
    Язык : Russian
    Default : Нет
    Forced : Нет
10.0 из 10
голосов: 4
/10
/10
grab777 19-12-2015, 10:46
Информация
Посетители, находящиеся в группе Гости, не могут оставлять комментарии к данной публикации.