Панель пользователя
Регистрация

Воспользуйтесь социальными сетями для входа на https://freerutor.com

vk odnoklassniki facebook mailru yandex google
Популярное
Счетчик
Голосуй за нас
VIP на сайте
Популярное
Товары интернет магазина
загрузка...

Охота / The Hunt (1 сезон: 1 серии из 7) (2015) BDRip 720p | AlexFilm

Охота / The Hunt (1 сезон: 1 серии из 7) (2015) BDRip 720p | AlexFilm
Участники торрент обмена
Сидов Пиров Скачали
0 0 206
Характеристика
Размер Файлы
4.34 GB
Релиз группа
Поделиться раздачей
Документальный
Наименование: Охота
Оригинальное наименование: The Hunt
Категория: Документальный, природа
Произведено: Великобритания / Silverback Films, BBC, BBC Worldwide See
Режиссер постановщик: Дэвид Аттенборо
Краткое описание: В этом выдающемся документальном сериале в деталях рассмотрены отношения между хищниками и их добычей. Вместо того, чтобы сосредотачиваться на кровавых подробностях охоты, в сериале с беспрецедентной тщательностью исследуются методы, с помощью которых хищники добывают еду, а их добыча старается избежать смерти.
  • Видео данные: MPEG-4 AVC, 9206 Кбит/с, 1280x720
    Аудио данные: Русский, английский (АC3, 6 ch, 640 Кбит/с)
    Перевод: Профессиональное двухголосое [AlexFilm]
    Продолжительность: 1 x ~ 00:58:00
    Охота / The Hunt (1 сезон: 1 серии из 7) (2015) BDRip 720p | AlexFilm
  • Охота / The Hunt (1 сезон: 1 серии из 7) (2015) BDRip 720p | AlexFilm Охота / The Hunt (1 сезон: 1 серии из 7) (2015) BDRip 720p | AlexFilm Охота / The Hunt (1 сезон: 1 серии из 7) (2015) BDRip 720p | AlexFilm
  • Внимание! Раздача ведётся путём добавления новых выпусков; при каждом добавлении создаётся новый торрент. Чтобы начать докачку нового выпуска, пользователям необходимо сделать следующее:
    (1) остановить скачивание,
    (2) удалить старый торрент у себя из клиента (старые серии удалять не надо),
    (3) скачать новый торрент и запустить его у себя в клиенте вместо старого, при этом указать клиенту путь в старую папку куда и должно происходить скачивание новых выпусков.
    Ваш клиент при этом должен произвести хеширование (проверку) старой папки (если не производит сам - помогите ему сделать это). В результате он будет докачивать только те выпуски, которых у Вас ещё нет. Старые выпуски при этом не удаляются, а продолжают раздаваться!
    Eсли Вы уже удалили старые выпуски, то предотвратить их повторную закачку можно, сняв галочки в соответствующих местах при запуске нового торрента. По возможности, желательно не удалять старые выпуски как можно дольше, чтобы релизёр не только продолжал раздавать старые выпуски, но и смог сконцентрироваться на новых.

    Как скачать отдельный файл
  • Формат : Matroska
    Версия формата : Version 4 / Version 2
    Размер файла : 4,34 Гбайт
    Продолжительность : 58 м.
    Общий поток : 10,7 Мбит/сек
    Название фильма : The Hunt 1x01 @ AlexFilm
    Дата кодирования : UTC 2015-12-18 13:24:13
    Программа кодирования : mkvmerge v7.1.0 ('Good Love') 64bit built on Jul 27 2014 13:06:55
    Библиотека кодирования : libebml v1.3.0 + libmatroska v1.4.1

    Видео
    Идентификатор : 1
    Формат : AVC
    Формат/Информация : Advanced Video Codec
    Профиль формата : High@L4.1
    Параметр CABAC формата : Да
    Параметр ReFrames формата : 9 кадров
    Идентификатор кодека : V_MPEG4/ISO/AVC
    Продолжительность : 58 м.
    Битрейт : 9206 Кбит/сек
    Ширина : 1280 пикселей
    Высота : 720 пикселей
    Соотношение сторон : 16:9
    Режим частоты кадров : Постоянный
    Частота кадров : 25,000 кадров/сек
    Цветовое пространство : YUV
    Субдискретизация насыщенности : 4:2:0
    Битовая глубина : 8 бит
    Тип развёртки : Прогрессивная
    Бит/(Пиксели*Кадры) : 0.400
    Размер потока : 3,74 Гбайт (86%)
    Библиотека кодирования : x264 core 148 r2638 7599210
    Настройки программы : cabac=1 / ref=9 / deblock=1:-3:-3 / analyse=0x3:0x133 / me=umh / subme=11 / psy=1 / psy_rd=1.00:0.05 / mixed_ref=1 / me_range=48 / chroma_me=1 / trellis=2 / 8x8dct=1 / cqm=0 / deadzone=21,11 / fast_pskip=0 / chroma_qp_offset=-3 / threads=12 / lookahead_threads=2 / sliced_threads=0 / nr=0 / decimate=1 / interlaced=0 / bluray_compat=0 / constrained_intra=0 / bframes=8 / b_pyramid=2 / b_adapt=2 / b_bias=0 / direct=3 / weightb=1 / open_gop=0 / weightp=2 / keyint=250 / keyint_min=25 / scenecut=40 / intra_refresh=0 / rc=crf / mbtree=0 / crf=17.0 / qcomp=0.80 / qpmin=0 / qpmax=69 / qpstep=4 / ip_ratio=1.40 / pb_ratio=1.30 / aq=3:0.80
    Default : Да
    Forced : Нет

    Аудио #1
    Идентификатор : 2
    Формат : AC-3
    Формат/Информация : Audio Coding 3
    Расширение режима : CM (complete main)
    Параметр Endianness формата : Big
    Идентификатор кодека : A_AC3
    Продолжительность : 58 м.
    Вид битрейта : Постоянный
    Битрейт : 640 Кбит/сек
    Каналы : 6 каналов
    Расположение каналов : Front: L C R, Side: L R, LFE
    Частота : 48,0 КГц
    Метод сжатия : С потерями
    Размер потока : 266 Мбайт (6%)
    Заголовок : DD5.1 AlexFilm
    Язык : Russian
    Default : Да
    Forced : Нет

    Аудио #2
    Идентификатор : 3
    Формат : AC-3
    Формат/Информация : Audio Coding 3
    Расширение режима : CM (complete main)
    Параметр Endianness формата : Big
    Идентификатор кодека : A_AC3
    Продолжительность : 58 м.
    Вид битрейта : Постоянный
    Битрейт : 640 Кбит/сек
    Каналы : 6 каналов
    Расположение каналов : Front: L C R, Side: L R, LFE
    Частота : 48,0 КГц
    Метод сжатия : С потерями
    Размер потока : 266 Мбайт (6%)
    Заголовок : DD5.1 Original
    Язык : English
    Default : Нет
    Forced : Нет
10.0 из 10
голосов: 4
grab777 19-12-2015, 09:04
Информация
Посетители, находящиеся в группе Гости, не могут оставлять комментарии к данной публикации.