Панель пользователя
Регистрация

Воспользуйтесь социальными сетями для входа на https://freerutor.com

vk odnoklassniki facebook mailru yandex google
Популярное
Счетчик
Голосуй за нас
VIP на сайте
Популярное
Товары интернет магазина
загрузка...

Зеро 2 / Zero II (2010) BDRip 720p

Зеро 2 / Zero II (2010) BDRip 720p
Участники торрент обмена
Сидов Пиров Скачали
1 0 194
Характеристика
Размер Файлы
3.76 GB
Релиз группа
Поделиться раздачей
Фильмы (720,1080,Blu-Ray)
Наименование: Зеро 2
Оригинальное наименование: Zero II
Категория: Триллер, комедия, криминал
Произведено: Литва / Kinokultas
Режиссер постановщик: Эмилис Веливис
В главных ролях: Кестутис Якштас, Рамунас Рудокас, Витаутас Шапранаускас, Аушра Штуките, Инга Янкаускайте, Андрюс Жюраускас, Миндаугас Папинигис, Жемина Ашмонтайте, Донатас Иванаускас, Ауримас Мелисиус
Краткое описание: Когда криминальный мир сталкивается с шоу-бизнесом, наемные убийцы и приятели Макс и Сильвестр внезапно оказываются вовлеченными в гущу странных событий и драматических перипетий на грани абсурда. Под натиском дешевых интриг и силиконовых грудей они должны выполнить поставленную перед ними задачу — вернуть исчезнувший груз наркотиков и наркокурьера, убить кучу людей и любить опасных женщин.
  • Видео данные: MPEG-4 AVC, 5300 Кбит/с, 1280x536
    Аудио данные: Русский (AC3, 2 ch, 192 Кбит/с), литовский (DTS, 6 ch, 755 Кбит/с)
    Перевод: Профессиональный одноголосый [VSI "Kino Kultas"]
    Субтитры: Русские
    Продолжительность: 01:25:54
  • Зеро 2 / Zero II (2010) BDRip 720p Зеро 2 / Zero II (2010) BDRip 720p Зеро 2 / Zero II (2010) BDRip 720p
  • Общее
    Уникальный идентификатор : 181646753795712488262360250966848606302 (0x88A7E46A136E75FE9F694D04AE58905E)
    Полное имя : F:\Zero II - Shoot 'Em Down.2010.720p.BluRay.Rus.Lit.mkv
    Формат : Matroska
    Размер файла : 3,76 Гбайт
    Продолжительность : 1 ч. 25 м.
    Общий поток : 6264 Кбит/сек
    Название фильма : Zero II - Shoot 'Em Down.2010. Release for HDCLUB
    Дата кодирования : UTC 2011-08-19 11:40:05
    Программа кодирования : mkvmerge v4.8.0 ('I Got The...') сборка от May 24 2011 03:12:58
    Библиотека кодирования : libebml v1.2.0 + libmatroska v1.1.0

    Видео
    Идентификатор : 1
    Формат : AVC
    Формат/Информация : Advanced Video Codec
    Профиль формата : High@L4.1
    Параметр CABAC формата : Да
    Параметр ReFrames формата : 8 кадров
    Идентификатор кодека : V_MPEG4/ISO/AVC
    Продолжительность : 1 ч. 25 м.
    Битрейт : 5300 Кбит/сек
    Ширина : 1280 пикс.
    Высота : 536 пикс.
    Соотношение сторон : 2,40:1
    Частота кадров : 24,000 кадр/сек
    Цветовое пространство : YUV
    Подвыборка цветности : 4:2:0
    Битовая глубина : 8 бит
    Тип развёртки : Прогрессивная
    Бит/(Пиксели*Кадры) : 0.322
    Размер потока : 3,12 Гбайт (83%)
    Заголовок : Release for HDCLUB
    Библиотека кодирования : x264 core 92 r1510 33d382a
    Настройки программы : cabac=1 / ref=8 / deblock=1:-2:-2 / analyse=0x3:0x133 / me=umh / subme=10 / psy=1 / psy_rd=1.00:0.10 / mixed_ref=1 / me_range=48 / chroma_me=1 / trellis=2 / 8x8dct=1 / cqm=0 / deadzone=21,11 / fast_pskip=0 / chroma_qp_offset=-3 / threads=3 / sliced_threads=0 / nr=0 / decimate=1 / interlaced=0 / constrained_intra=0 / bframes=8 / b_pyramid=2 / b_adapt=2 / b_bias=0 / direct=3 / wpredb=1 / wpredp=2 / keyint=240 / keyint_min=24 / scenecut=40 / intra_refresh=0 / rc_lookahead=50 / rc=2pass / mbtree=1 / bitrate=5300 / ratetol=1.0 / qcomp=0.60 / qpmin=10 / qpmax=51 / qpstep=4 / cplxblur=20.0 / qblur=0.5 / ip_ratio=1.40 / aq=1:1.00
    Язык : English

    Аудио #1
    Идентификатор : 2
    Формат : AC-3
    Формат/Информация : Audio Coding 3
    Расширение режима : CM (complete main)
    Идентификатор кодека : A_AC3
    Продолжительность : 1 ч. 25 м.
    Вид битрейта : Постоянный
    Битрейт : 192 Кбит/сек
    Каналы : 2 канала
    Расположение каналов : Front: L R
    Частота : 48,0 КГц
    Битовая глубина : 16 бит
    Метод сжатия : С потерями
    Размер потока : 118 Мбайт (3%)
    Заголовок : (AC3 2ch ,48 kHz,192 kbps,Одноголосый закадровый, VSI "Kino Kultas" )
    Язык : Russian

    Аудио #2
    Идентификатор : 3
    Формат : DTS
    Формат/Информация : Digital Theater Systems
    Идентификатор кодека : A_DTS
    Продолжительность : 1 ч. 25 м.
    Вид битрейта : Постоянный
    Битрейт : 755 Кбит/сек
    Каналы : 6 каналов
    Расположение каналов : Front: L C R, Side: L R, LFE
    Частота : 48,0 КГц
    Битовая глубина : 16 бит
    Метод сжатия : С потерями
    Размер потока : 464 Мбайт (12%)
    Заголовок : (DTS 5.1,48 kHz,755 kbps)
    Язык : Lithuanian

    Текст
    Идентификатор : 4
    Формат : UTF-8
    Идентификатор кодека : S_TEXT/UTF8
    Идентификатор кодека/Информация : UTF-8 Plain Text
    Заголовок : SRT
    Язык : Russian

    Меню
    00:00:00.000 : :Chapter 01
    00:05:00.000 : :Chapter 02
    00:10:00.000 : :Chapter 03
    00:15:00.000 : :Chapter 04
    00:20:00.000 : :Chapter 05
    00:25:00.000 : :Chapter 06
    00:30:00.000 : :Chapter 07
    00:35:00.000 : :Chapter 08
    00:40:00.000 : :Chapter 09
    00:45:00.000 : :Chapter 10
    00:50:00.000 : :Chapter 11
    00:55:00.000 : :Chapter 12
    01:00:00.000 : :Chapter 13
    01:05:00.000 : :Chapter 14
    01:10:00.000 : :Chapter 15
    01:15:00.000 : :Chapter 16
    01:20:00.000 : :Chapter 17
    01:25:00.000 : :Chapter 18
10.0 из 10
голосов: 5
/10
/10
grab777 19-12-2015, 07:41
Информация
Посетители, находящиеся в группе Гости, не могут оставлять комментарии к данной публикации.