Панель пользователя
Регистрация

Воспользуйтесь социальными сетями для входа на https://freerutor.com

vk odnoklassniki facebook mailru yandex google
Популярное
Счетчик
Голосуй за нас
VIP на сайте
Популярное
Товары интернет магазина
загрузка...

Владимирская 15 (1-2 сезон: 1-32 серии из 32) (2015) WEB-DL 720p

Владимирская 15 (1-2 сезон: 1-32 серии из 32) (2015) WEB-DL 720p
Участники торрент обмена
Сидов Пиров Скачали
1 0 517
Характеристика
Размер Файлы
16.15 GB
Релиз группа
Поделиться раздачей
Русские сериалы
Наименование: Владимирская 15
Категория: Криминал, детектив
Произведено: Украина / FILM.UA Group, Телеканал ICTV
Режиссер постановщик: Валерий Рожко, Олег Туранский
В главных ролях: Сергей Стрельников, Яков Кучеревский, Виктория Литвиненко, Ярослав Кучеренко, Виктор Сарайкин
Краткое описание: При одном из Районных Управлении Внутренних Дел (РУВД) города Киева создается оперативная группа, задача которой -расследовать по горячим следам сложные, запутанные и загадочные преступления. В составе команды четверо разных по темпераменту, опыту и характеру оперативников. У каждого из них своя история прихода в милицию, свои методы и подходы к решению поставленных задач, у каждого разные, порой даже выходящие за рамки закона. Но цель у всех одна – найти и обезвредить… Фильм снимается по заказу телеканала ICTV, премьера сериала в эфире запланирована на осень 2015 года.
  • Видео данные: MPEG-4 AVC, 1600 Кбит/с, 1280x720
    Аудио данные: Русский (AC3, 2 ch, 192 Кбит/с)
    Перевод: Оригинал (Русский)
    Продолжительность: 32 х ~ 00:46:00
  • Владимирская 15 (1-2 сезон: 1-32 серии из 32) (2015) WEB-DL 720p Владимирская 15 (1-2 сезон: 1-32 серии из 32) (2015) WEB-DL 720p Владимирская 15 (1-2 сезон: 1-32 серии из 32) (2015) WEB-DL 720p
  • Внимание! Раздача ведётся путём добавления новых выпусков; при каждом добавлении создаётся новый торрент. Чтобы начать докачку нового выпуска, пользователям необходимо сделать следующее:
    (1) остановить скачивание,
    (2) удалить старый торрент у себя из клиента (старые серии удалять не надо),
    (3) скачать новый торрент и запустить его у себя в клиенте вместо старого, при этом указать клиенту путь в старую папку куда и должно происходить скачивание новых выпусков.
    Ваш клиент при этом должен произвести хеширование (проверку) старой папки (если не производит сам - помогите ему сделать это). В результате он будет докачивать только те выпуски, которых у Вас ещё нет. Старые выпуски при этом не удаляются, а продолжают раздаваться!
    Eсли Вы уже удалили старые выпуски, то предотвратить их повторную закачку можно, сняв галочки в соответствующих местах при запуске нового торрента. По возможности, желательно не удалять старые выпуски как можно дольше, чтобы релизёр не только продолжал раздавать старые выпуски, но и смог сконцентрироваться на новых.

    Как скачать отдельный файл
  • Общее
    Уникальный идентификатор : 182093786719324272034924561535926817653 (0x88FDFCD6D30F06EC804CC2F423305375)
    Полное имя : F:\Фильмы торренты\Vladimirskaya-15.2015.WEB-DL.(720p).MediaClub\Vladimirskaya-15.(01.seriya).2015.WEB-DL.(720p).MediaClub.mkv
    Формат : Matroska
    Версия формата : Version 2
    Размер файла : 529 Мбайт
    Продолжительность : 46 м.
    Режим общего битрейта : Переменный
    Общий поток : 1599 Кбит/сек
    Название фильма : Vladimirskaya-15.(01.seriya).2015.WEB-DL.(720p) @ release by Nikolspup MediaClub
    Дата кодирования : UTC 2015-12-12 16:46:41
    Программа кодирования : mkvmerge v5.8.0 ('No Sleep / Pillow') built on Sep 2 2012 15:37:04
    Библиотека кодирования : libebml v1.2.3 + libmatroska v1.3.0

    Видео
    Идентификатор : 1
    Формат : AVC
    Формат/Информация : Advanced Video Codec
    Профиль формата : High@L3.1
    Параметр CABAC формата : Да
    Параметр ReFrames формата : 1 кадр
    Идентификатор кодека : V_MPEG4/ISO/AVC
    Продолжительность : 46 м.
    Вид битрейта : Переменный
    Битрейт : 1375 Кбит/сек
    Максимальный битрейт : 40,0 Мбит/сек
    Ширина : 1280 пикселей
    Высота : 720 пикселей
    Соотношение сторон : 16:9
    Режим частоты кадров : Постоянный
    Частота кадров : 25,000 кадров/сек
    Цветовое пространство : YUV
    Субдискретизация насыщенности : 4:2:0
    Битовая глубина : 8 бит
    Тип развёртки : Прогрессивная
    Бит/(Пиксели*Кадры) : 0.060
    Размер потока : 455 Мбайт (86%)
    Default : Да
    Forced : Да
    Основные цвета : BT.709
    Характеристики трансфера : BT.709
    Коэффициенты матрицы : BT.709

    Аудио
    Идентификатор : 2
    Формат : AC-3
    Формат/Информация : Audio Coding 3
    Расширение режима : CM (complete main)
    Параметр Endianness формата : Big
    Идентификатор кодека : A_AC3
    Продолжительность : 46 м.
    Вид битрейта : Постоянный
    Битрейт : 192 Кбит/сек
    Каналы : 2 канала
    Расположение каналов : Front: L R
    Частота : 48,0 КГц
    Битовая глубина : 16 бит
    Метод сжатия : С потерями
    Размер потока : 63,5 Мбайт (12%)
    Язык : Russian
    Default : Да
    Forced : Да
3.0 из 10
голосов: 23
/10
/10
Раздачу отредактировал: SuslOFF - 1-07-2016, 18:47
По причине: (+ 29-32 серии!!!)
grab777 1-07-2016, 18:47
Информация
Посетители, находящиеся в группе Гости, не могут оставлять комментарии к данной публикации.