Панель пользователя
Регистрация

Воспользуйтесь социальными сетями для входа на https://freerutor.com

vk odnoklassniki facebook mailru yandex google
Популярное
Счетчик
Голосуй за нас
VIP на сайте
Популярное
Товары интернет магазина
загрузка...

Дубликаты / In Their Skin (2012) BDRip 1080p

Дубликаты / In Their Skin (2012) BDRip 1080p
Участники торрент обмена
Сидов Пиров Скачали
0 0 157
Характеристика
Размер Файлы
6.85 GB
Поделиться раздачей
Фильмы (720,1080,Blu-Ray)
Наименование: Дубликаты
Оригинальное наименование: In Their Skin
Категория: Ужасы, триллер
Произведено: Канада / Sepia Films, Studio Movement Entertainment, Téléfilm Canada
Режиссер постановщик: Джереми Пауэр Реджимбал
В главных ролях: Сэлма Блэр, Джошуа Клоуз, Джеймс Д`Арси, Рэйчел Майнер, Куинн Лорд, Алекс Феррис, Лиэнн Адачи, Мэтт Беллефло, Агам Дарши, Дебби Хирата
Краткое описание: Пытаясь прийти в себя после недавней трагедии — смерти шестилетней дочери — Марк и Мэри Хьюз берут с собой сына Брэндона и уезжают в глушь, где у них есть коттедж. Им хочется одиночества, тишины и спокойствия, но на пороге их уединенного жилища неожиданно возникает радушная соседская семья — Бобби, Джейн и их сын Джаред, — которой не терпится поприветствовать вновь прибывших. Они приносят дров и напрашиваются на ужин. Вежливые хозяева приглашают гостей в дом, однако скоро они пожалеют о своём гостеприимстве.
  • Видео данные: MPEG-4 AVC, 8221 Кбит/с, 1920x800
    Аудио данные: Русский (AC3, 6 ch, 448 Кбит/с), английский (DTS, 6 ch, 1509 Кбит/с)
    Перевод: Профессиональный многоголосый
    Продолжительность: 01:36:21
  • Дубликаты / In Their Skin (2012) BDRip 1080p Дубликаты / In Their Skin (2012) BDRip 1080p Дубликаты / In Their Skin (2012) BDRip 1080p
  • Format : Matroska
    Format version : Version 4 / Version 2
    File size : 6.85 GiB
    Duration : 1h 36mn
    Overall bit rate : 10.2 Mbps
    Movie name : Дубликаты.In Their Skin.2012.BDRip.1080p
    Encoded date : UTC 2015-12-18 09:11:59
    Writing application : mkvmerge v8.3.0 ('Over the Horizon') 64bit
    Writing library : libebml v1.3.1 + libmatroska v1.4.2

    Video
    ID : 1
    Format : AVC
    Format/Info : Advanced Video Codec
    Format profile : High@L4.1
    Format settings, CABAC : Yes
    Format settings, ReFrames : 5 frames
    Codec ID : V_MPEG4/ISO/AVC
    Duration : 1h 36mn
    Bit rate : 8 221 Kbps
    Width : 1 920 pixels
    Height : 800 pixels
    Display aspect ratio : 2.40:1
    Frame rate mode : Constant
    Frame rate : 23.976 (24000/1001) fps
    Color space : YUV
    Chroma subsampling : 4:2:0
    Bit depth : 8 bits
    Scan type : Progressive
    Bits/(Pixel*Frame) : 0.223
    Stream size : 5.53 GiB (81%)
    Writing library : x264 core 148 r2597 e86f3a1
    Encoding settings : cabac=1 / ref=5 / deblock=1:0:0 / analyse=0x3:0x113 / me=umh / subme=8 / psy=1 / psy_rd=1.00:0.00 / mixed_ref=1 / me_range=16 / chroma_me=1 / trellis=1 / 8x8dct=1 / cqm=0 / deadzone=21,11 / fast_pskip=0 / chroma_qp_offset=-2 / threads=12 / lookahead_threads=2 / sliced_threads=0 / nr=0 / decimate=1 / interlaced=0 / bluray_compat=0 / constrained_intra=0 / bframes=3 / b_pyramid=2 / b_adapt=2 / b_bias=0 / direct=3 / weightb=1 / open_gop=0 / weightp=2 / keyint=250 / keyint_min=23 / scenecut=40 / intra_refresh=0 / rc_lookahead=50 / rc=2pass / mbtree=1 / bitrate=8221 / ratetol=1.0 / qcomp=0.60 / qpmin=0 / qpmax=69 / qpstep=4 / cplxblur=20.0 / qblur=0.5 / ip_ratio=1.40 / aq=1:1.00
    Language : English
    Default : Yes
    Forced : No

    Audio #1
    ID : 2
    Format : AC-3
    Format/Info : Audio Coding 3
    Mode extension : CM (complete main)
    Format settings, Endianness : Big
    Codec ID : A_AC3
    Duration : 1h 36mn
    Bit rate mode : Constant
    Bit rate : 448 Kbps
    Channel(s) : 6 channels
    Channel positions : Front: L C R, Side: L R, LFE
    Sampling rate : 48.0 KHz
    Frame rate : 31.250 fps (1536 spf)
    Compression mode : Lossy
    Stream size : 309 MiB (4%)
    Title : ПМ
    Language : Russian
    Default : Yes
    Forced : No

    Audio #2
    ID : 3
    Format : DTS
    Format/Info : Digital Theater Systems
    Mode : 16
    Format settings, Endianness : Big
    Codec ID : A_DTS
    Duration : 1h 36mn
    Bit rate mode : Constant
    Bit rate : 1 509 Kbps
    Channel(s) : 6 channels
    Channel positions : Front: L C R, Side: L R, LFE
    Sampling rate : 48.0 KHz
    Frame rate : 93.750 fps (512 spf)
    Bit depth : 24 bits
    Compression mode : Lossy
    Stream size : 1.02 GiB (15%)
    Language : English
    Default : No
    Forced : No

    Menu
    00:00:00.000 : en:00:00:00.000
    00:07:22.442 : en:00:07:22.442
    00:15:31.931 : en:00:15:31.931
    00:21:24.283 : en:00:21:24.283
    00:31:00.859 : en:00:31:00.859
    00:40:43.441 : en:00:40:43.441
    00:47:59.877 : en:00:47:59.877
    00:56:22.379 : en:00:56:22.379
    01:04:18.855 : en:01:04:18.855
    01:09:32.168 : en:01:09:32.168
    01:18:01.677 : en:01:18:01.677
    01:25:45.140 : en:01:25:45.140
10.0 из 10
голосов: 2
/10
/10
grab777 19-12-2015, 03:54
Информация
Посетители, находящиеся в группе Гости, не могут оставлять комментарии к данной публикации.