Панель пользователя
Регистрация

Воспользуйтесь социальными сетями для входа на https://freerutor.com

vk odnoklassniki facebook mailru yandex google
Популярное
Счетчик
Голосуй за нас
VIP на сайте
Популярное
Товары интернет магазина
загрузка...

Жертвуя пешкой / Pawn Sacrifice (2014) HDRip-AVC | Лицензия

Жертвуя пешкой / Pawn Sacrifice (2014) HDRip-AVC | Лицензия
Участники торрент обмена
Сидов Пиров Скачали
1 0 417
Характеристика
Размер Файлы
2.73 GB
Поделиться раздачей
Фильмы (AVC)
Наименование: Жертвуя пешкой
Оригинальное наименование: Pawn Sacrifice
Категория: Драма, биография
Произведено: США / Gail Katz Productions, Material Pictures, Mel's Cite du Cinema, PenLife Media
Режиссер постановщик: Эдвард Цвик
В главных ролях: Тоби Магуайр, Лив Шрайбер, Робин Вайгерт, Лили Рэйб, Питер Сарсгаард, Майкл Стулбарг, Софи Нелисс, Эвелин Брошу, Шеймас Дэви-Фицпатрик, Лидия Зедел
Краткое описание: В разгар Холодной войны внимание всей планеты приковано к «схватке столетия» — матчу за звание чемпиона мира по шахматам в Рейкьявике. Бой между абсолютным чемпионом Борисом Спасским и по-настоящему одержимым игрой Бобби Фишером превращается в борьбу за интеллектуальное превосходство двух сверхдержав. Права на проигрыш нет. Вокруг поединка разражается мировой скандал. Спасскому приходится справляться с беспрецедентным давлением. Гениальный разум Фишера, взвинченный паранойей, начинает охватывать безумие.
  • Видео данные: MPEG-4 AVC, 2550 Кбит/с, 1024x428
    Аудио данные: Русский (AC3, 6 ch, 384 Кбит/с), английский (AC3, 6 ch, 448 Кбит/с)
    Перевод: Дублированный [iTunes]
    Субтитры: Английские
    Продолжительность: 01:55:43
  • Жертвуя пешкой / Pawn Sacrifice (2014) HDRip-AVC | Лицензия Жертвуя пешкой / Pawn Sacrifice (2014) HDRip-AVC | Лицензия Жертвуя пешкой / Pawn Sacrifice (2014) HDRip-AVC | Лицензия
  • Общее
    Уникальный идентификатор : 180388983502466150671599966987098445944 (0x87B5A78D151BF4428F021681B9D2D878)
    Полное имя : Zhertvuja.Peshkoi.2015.HDRip.AVC.mkv
    Формат : Matroska
    Версия формата : Version 4 / Version 2
    Размер файла : 2,73 Гбайт
    Продолжительность : 1 ч. 55 м.
    Общий поток : 3371 Кбит/сек
    Дата кодирования : UTC 2015-12-17 22:56:52
    Программа кодирования : mkvmerge v8.5.0 ('Vanishing Act') 64bit
    Библиотека кодирования : libebml v1.3.1 + libmatroska v1.4.2
    DURATION : 01:55:43.968000000
    NUMBER_OF_FRAMES : 216999
    NUMBER_OF_BYTES : 388862208
    _STATISTICS_WRITING_APP : mkvmerge v8.5.0 ('Vanishing Act') 64bit
    _STATISTICS_WRITING_DATE_UTC : 2015-12-17 22:56:52
    _STATISTICS_TAGS : BPS DURATION NUMBER_OF_FRAMES NUMBER_OF_BYTES

    Видео
    Идентификатор : 1
    Формат : AVC
    Формат/Информация : Advanced Video Codec
    Профиль формата : High@L4.1
    Параметр CABAC формата : Да
    Параметр ReFrames формата : 12 кадров
    Идентификатор кодека : V_MPEG4/ISO/AVC
    Продолжительность : 1 ч. 55 м.
    Битрейт : 2550 Кбит/сек
    Ширина : 1024 пикселя
    Высота : 428 пикселей
    Соотношение сторон : 2,40:1
    Режим частоты кадров : Постоянный
    Частота кадров : 23,976 кадра/сек
    Цветовое пространство : YUV
    Субдискретизация насыщенности : 4:2:0
    Битовая глубина : 8 бит
    Тип развёртки : Прогрессивная
    Бит/(Пиксели*Кадры) : 0.243
    Размер потока : 2,00 Гбайт (73%)
    Библиотека кодирования : x264 core 148 r2638 7599210
    Настройки программы : cabac=1 / ref=12 / deblock=1:-3:-3 / analyse=0x3:0x113 / me=umh / subme=11 / psy=1 / psy_rd=1.00:0.08 / mixed_ref=1 / me_range=32 / chroma_me=1 / trellis=2 / 8x8dct=1 / cqm=0 / deadzone=21,11 / fast_pskip=1 / chroma_qp_offset=-3 / threads=16 / lookahead_threads=2 / sliced_threads=0 / nr=0 / decimate=1 / interlaced=0 / bluray_compat=0 / constrained_intra=0 / bframes=9 / b_pyramid=2 / b_adapt=2 / b_bias=0 / direct=3 / weightb=1 / open_gop=0 / weightp=2 / keyint=240 / keyint_min=23 / scenecut=0 / intra_refresh=0 / rc_lookahead=60 / rc=2pass / mbtree=0 / bitrate=2550 / ratetol=1.0 / qcomp=0.60 / qpmin=0 / qpmax=69 / qpstep=4 / cplxblur=20.0 / qblur=0.5 / vbv_maxrate=62500 / vbv_bufsize=78125 / nal_hrd=none / filler=0 / ip_ratio=1.40 / pb_ratio=1.30 / aq=1:1.10
    Default : Да
    Forced : Нет

    Аудио #1
    Идентификатор : 2
    Формат : AC-3
    Формат/Информация : Audio Coding 3
    Расширение режима : CM (complete main)
    Параметр Endianness формата : Big
    Идентификатор кодека : A_AC3
    Продолжительность : 1 ч. 55 м.
    Вид битрейта : Постоянный
    Битрейт : 384 Кбит/сек
    Каналы : 6 каналов
    Расположение каналов : Front: L C R, Side: L R, LFE
    Частота : 48,0 КГц
    Метод сжатия : С потерями
    Размер потока : 318 Мбайт (11%)
    Язык : Russian
    Default : Да
    Forced : Нет

    Аудио #2
    Идентификатор : 5
    Формат : AC-3
    Формат/Информация : Audio Coding 3
    Расширение режима : CM (complete main)
    Параметр Endianness формата : Big
    Идентификатор кодека : A_AC3
    Продолжительность : 1 ч. 55 м.
    Вид битрейта : Постоянный
    Битрейт : 448 Кбит/сек
    Каналы : 6 каналов
    Расположение каналов : Front: L C R, Side: L R, LFE
    Частота : 48,0 КГц
    Метод сжатия : С потерями
    Размер потока : 371 Мбайт (13%)
    Язык : English
    Default : Нет
    Forced : Нет

    Текст #1
    Идентификатор : 3
    Формат : UTF-8
    Идентификатор кодека : S_TEXT/UTF8
    Идентификатор кодека/Информация : UTF-8 Plain Text
    Заголовок : english
    Язык : English
    Default : Нет
    Forced : Нет

    Текст #2
    Идентификатор : 4
    Формат : UTF-8
    Идентификатор кодека : S_TEXT/UTF8
    Идентификатор кодека/Информация : UTF-8 Plain Text
    Заголовок : english sdh
    Язык : English
    Default : Нет
    Forced : Нет

    Меню
    00:00:00.000 : en:00:00:00.000
    00:06:40.025 : en:00:06:40.025
    00:10:34.843 : en:00:10:34.843
    00:15:15.540 : en:00:15:15.540
    00:20:03.536 : en:00:20:03.536
    00:26:01.852 : en:00:26:01.852
    00:31:15.123 : en:00:31:15.123
    00:38:54.040 : en:00:38:54.040
    00:45:24.180 : en:00:45:24.180
    00:51:00.140 : en:00:51:00.140
    00:55:47.803 : en:00:55:47.803
    00:59:35.614 : en:00:59:35.614
    01:07:02.435 : en:01:07:02.435
    01:10:49.537 : en:01:10:49.537
    01:18:07.808 : en:01:18:07.808
    01:22:53.677 : en:01:22:53.677
    01:29:49.884 : en:01:29:49.884
    01:35:09.495 : en:01:35:09.495
    01:39:16.951 : en:01:39:16.951
    01:48:15.114 : en:01:48:15.114
10.0 из 10
голосов: 3
/10
/10
grab777 18-12-2015, 05:07
Информация
Посетители, находящиеся в группе Гости, не могут оставлять комментарии к данной публикации.