Панель пользователя
Регистрация

Воспользуйтесь социальными сетями для входа на https://freerutor.com

vk odnoklassniki facebook mailru yandex google
Популярное
Счетчик
Голосуй за нас
VIP на сайте
Популярное
Товары интернет магазина
загрузка...

Зеленая карета (2015) WEB-DLRip-AVC | Лицензия

Зеленая карета (2015) WEB-DLRip-AVC | Лицензия
Участники торрент обмена
Сидов Пиров Скачали
2 0 32736
Характеристика
Размер Файлы
1.70 GB
Релиз группа
Поделиться раздачей
Фильмы (AVC)
Наименование: Зеленая карета
Категория: Драма
Произведено: Россия / Аристократ, Пропеллер Продакшн, Реал-Дакота, Революция Фильм
Режиссер постановщик: Олег Асадулин
В главных ролях: Андрей Мерзликин, Виктория Исакова, Александр Мичков, Сергей Юшкевич, Владимир Меньшов, Анна Чиповская, Ян Цапник, Женя Малахова, Дмитрий Астрахан, Андрей Леонов
Краткое описание: Вадим Раевский — известный режиссер, у которого есть все: деньги, красивые женщины, всеобщее признание. Его новый фильм даже выдвигают на «Оскар». Казалось, удача сама преследует его, но всегда ли она будет к нему благосклонна? Буквально в один миг его привычный мир рушится. Вадим пытается разобраться в случившемся, но чем дальше он заходит в своем расследовании, тем больше шокирующих подробностей ему открывается…
  • Видео данные: MPEG-4 AVC, 2300 Кбит/с, 1024x424
    Аудио данные: Русский (AC3, 6 ch, 384 Кбит/с)
    Перевод: Оригинал [iTunes]
    Продолжительность: 01:30:27
  • Зеленая карета (2015) WEB-DLRip-AVC | Лицензия Зеленая карета (2015) WEB-DLRip-AVC | Лицензия Зеленая карета (2015) WEB-DLRip-AVC | Лицензия
  • General
    Unique ID : 179677052328117467465767955856627495906 (0x872C8AA25A1E9D309C5A73EB64FA73E2)
    Complete name : H:3eleHaia.Kareta.2015.WEB-DLRip-AVC.by.R.G.Resident.mkv
    Format : Matroska
    Format version : Version 4 / Version 2
    File size : 1.70 GiB
    Duration : 1h 30mn
    Overall bit rate : 2 686 Kbps
    Movie name : Зелёная карета (2015) WEB-DLRip-AVC by R.G. Resident
    Encoded date : UTC 2015-12-17 17:19:38
    Writing application : mkvmerge v8.6.1 ('Flying') 64bit
    Writing library : libebml v1.3.3 + libmatroska v1.4.4
    DURATION : 01:30:27.200000000
    NUMBER_OF_FRAMES : 169600
    NUMBER_OF_BYTES : 260505600
    _STATISTICS_WRITING_APP : mkvmerge v8.6.1 ('Flying') 64bit
    _STATISTICS_WRITING_DATE_UTC : 2015-12-17 17:19:38
    _STATISTICS_TAGS : BPS DURATION NUMBER_OF_FRAMES NUMBER_OF_BYTES

    Video
    ID : 1
    Format : AVC
    Format/Info : Advanced Video Codec
    Format profile : High@L4.1
    Format settings, CABAC : Yes
    Format settings, ReFrames : 12 frames
    Codec ID : V_MPEG4/ISO/AVC
    Duration : 1h 30mn
    Bit rate : 2 300 Kbps
    Width : 1 024 pixels
    Height : 424 pixels
    Display aspect ratio : 2.40:1
    Frame rate : 25.000 fps
    Color space : YUV
    Chroma subsampling : 4:2:0
    Bit depth : 8 bits
    Scan type : Progressive
    Bits/(Pixel*Frame) : 0.212
    Stream size : 1.42 GiB (84%)
    Title : -Lexx-
    Writing library : x264 core 146 r2538 121396c
    Encoding settings : cabac=1 / ref=12 / deblock=1:-2:-2 / analyse=0x3:0x113 / me=umh / subme=11 / psy=1 / psy_rd=1.00:0.10 / mixed_ref=1 / me_range=32 / chroma_me=1 / trellis=2 / 8x8dct=1 / cqm=0 / deadzone=21,11 / fast_pskip=0 / chroma_qp_offset=-3 / threads=6 / lookahead_threads=2 / sliced_threads=0 / nr=0 / decimate=1 / interlaced=0 / bluray_compat=0 / constrained_intra=0 / bframes=12 / b_pyramid=2 / b_adapt=2 / b_bias=0 / direct=3 / weightb=1 / open_gop=0 / weightp=2 / keyint=250 / keyint_min=25 / scenecut=40 / intra_refresh=0 / rc=2pass / mbtree=0 / bitrate=2300 / ratetol=1.0 / qcomp=0.60 / qpmin=0 / qpmax=69 / qpstep=4 / cplxblur=20.0 / qblur=0.5 / ip_ratio=1.40 / pb_ratio=1.30 / aq=1:1.00
    Language : English
    Default : Yes
    Forced : No
    DURATION : 01:30:27.200000000
    NUMBER_OF_FRAMES : 135680
    NUMBER_OF_BYTES : 1560169675
    _STATISTICS_WRITING_APP : mkvmerge v8.6.1 ('Flying') 64bit
    _STATISTICS_WRITING_DATE_UTC : 2015-12-17 17:19:38
    _STATISTICS_TAGS : BPS DURATION NUMBER_OF_FRAMES NUMBER_OF_BYTES

    Audio
    ID : 2
    Format : AC-3
    Format/Info : Audio Coding 3
    Mode extension : CM (complete main)
    Codec ID : A_AC3
    Duration : 1h 30mn
    Bit rate mode : Constant
    Bit rate : 384 Kbps
    Channel(s) : 6 channels
    Channel positions : Front: L C R, Side: L R, LFE
    Sampling rate : 48.0 KHz
    Bit depth : 16 bits
    Compression mode : Lossy
    Stream size : 248 MiB (14%)
    Title : iTunes
    Language : Russian
    Default : Yes
    Forced : No

    Menu
    00:00:00.000 : en:Глава 1
    00:05:25.000 : en:Глава 2
    00:11:14.000 : en:Глава 3
    00:16:42.000 : en:Глава 4
    00:22:20.000 : en:Глава 5
    00:27:38.000 : en:Глава 6
    00:33:00.000 : en:Глава 7
    00:39:33.000 : en:Глава 8
    00:45:51.000 : en:Глава 9
    00:51:44.000 : en:Глава 10
    00:58:18.000 : en:Глава 11
    01:04:33.000 : en:Глава 12
    01:10:17.000 : en:Глава 13
    01:15:40.000 : en:Глава 14
    01:21:59.000 : en:Глава 15
8.2 из 10
голосов: 6
/10
/10
grab777 18-12-2015, 04:38

Exp769 | 13-01-2016, 11:15 | Статус: Оффлайн

Фильм хороший. Более подробная (и интересная) рецензия здесь
Информация
Посетители, находящиеся в группе Гости, не могут оставлять комментарии к данной публикации.