Панель пользователя
Регистрация

Воспользуйтесь социальными сетями для входа на https://freerutor.com

vk odnoklassniki facebook mailru yandex google
Популярное
Счетчик
Голосуй за нас
VIP на сайте
Популярное
Товары интернет магазина
загрузка...

Нелепая шестёрка / The Ridiculous 6 (2015) WEB-DLRip-AVC

Нелепая шестёрка / The Ridiculous 6 (2015) WEB-DLRip-AVC
Участники торрент обмена
Сидов Пиров Скачали
2 0 910
Характеристика
Размер Файлы
1.85 GB
Релиз группа
Поделиться раздачей
Фильмы (AVC)
Наименование: Нелепая шестёрка
Оригинальное наименование: The Ridiculous 6
Категория: Комедия, вестерн
Произведено: США / Happy Madison Productions
Режиссер постановщик: Фрэнк Корачи
В главных ролях: Адам Сэндлер, Тейлор Лотнер, Стив Бушеми, Терри Крюс, Роб Шнайдер, Уитни Каммингс, Харви Кейтель, Ник Нолти, Дэнни Трехо, Люк Уилсон
Краткое описание: Комедийный вестерн расскажет историю мужчины, оставшегося в раннем детстве сиротой и выросшего в племени индейцев апачи, которые его воспитали и выучили в своих традициях и законах. Главный герой по прозвищу «Белый Нож» — преступник, который неожиданно обнаруживает, что не один на свете: у него есть пятеро сводных братьев. Объединившись, они принимают решение отыскать их отца, затерявшегося где-то на просторах Дикого Запада. Вот тут-то и начинаются настоящие приключения, которые настолько же захватывающие, насколько комичны.
  • Видео данные: MPEG-4 AVC, 1456 Кбит/с, 1024x432
    Аудио данные: Русский, английский (AC3, 6 ch, 384 Кбит/с)
    Перевод: Профессиональный многоголосый [Paradox & Omskbird records]
    Продолжительность: 01:59:09
  • Нелепая шестёрка / The Ridiculous 6 (2015) WEB-DLRip-AVC Нелепая шестёрка / The Ridiculous 6 (2015) WEB-DLRip-AVC Нелепая шестёрка / The Ridiculous 6 (2015) WEB-DLRip-AVC
  • Релиз от: FreeRutor_by_grab777

    Общее
    Уникальный идентификатор : 238380188068352169583447231199645544617 (0xB3565AAF24457C9280043FD43FB430A9)
    Полное имя : E:\Раздача-BDRip\Nelepay.6.2015.WEB-DLRip-AVC_FreeRutor_grab777.mkv
    Формат : Matroska
    Версия формата : Version 2
    Размер файла : 1,85 Гбайт
    Продолжительность : 1 ч. 59 м.
    Общий поток : 2226 Кбит/сек
    Название фильма : FreeRutor_Rip_by_grab777
    Дата кодирования : UTC 2015-12-15 03:40:04
    Программа кодирования : mkvmerge v5.8.0 ('No Sleep / Pillow') built on Sep 2 2012 15:37:04
    Библиотека кодирования : XviD4PSP 6.0 / 54.29.105

    Видео
    Идентификатор : 1
    Формат : AVC
    Формат/Информация : Advanced Video Codec
    Профиль формата : High@L4.1
    Параметр CABAC формата : Да
    Параметр ReFrames формата : 7 кадров
    Идентификатор кодека : V_MPEG4/ISO/AVC
    Продолжительность : 1 ч. 59 м.
    Битрейт : 1456 Кбит/сек
    Ширина : 1024 пикселя
    Высота : 432 пикселя
    Соотношение сторон : 2,40:1
    Соотношение сторон в оригинале : 2,40:1
    Режим частоты кадров : Постоянный
    Частота кадров : 23,976 кадра/сек
    Цветовое пространство : YUV
    Субдискретизация насыщенности : 4:2:0
    Битовая глубина : 8 бит
    Тип развёртки : Прогрессивная
    Бит/(Пиксели*Кадры) : 0.137
    Размер потока : 1,18 Гбайт (64%)
    Заголовок : FreeRutor_Rip_by_grab777
    Библиотека кодирования : x264 core 128 r2216M 198a7ea
    Настройки программы : cabac=1 / ref=8 / deblock=1:2:2 / analyse=0x3:0x133 / me=umh / subme=9 / psy=1 / psy_rd=1.00:0.20 / mixed_ref=1 / me_range=24 / chroma_me=1 / trellis=2 / 8x8dct=1 / cqm=0 / deadzone=21,11 / fast_pskip=1 / chroma_qp_offset=-3 / threads=4 / lookahead_threads=1 / sliced_threads=0 / nr=0 / decimate=1 / interlaced=0 / bluray_compat=0 / constrained_intra=0 / bframes=8 / b_pyramid=1 / b_adapt=2 / b_bias=3 / direct=3 / weightb=1 / open_gop=0 / weightp=2 / keyint=230 / keyint_min=23 / scenecut=40 / intra_refresh=0 / rc_lookahead=40 / rc=2pass / mbtree=1 / bitrate=1456 / ratetol=1.0 / qcomp=0.60 / qpmin=10 / qpmax=51 / qpstep=4 / cplxblur=20.0 / qblur=0.5 / ip_ratio=1.40 / aq=1:1.00
    Язык : English
    Default : Да
    Forced : Нет

    Аудио #1
    Идентификатор : 2
    Формат : AC-3
    Формат/Информация : Audio Coding 3
    Расширение режима : CM (complete main)
    Параметр Endianness формата : Big
    Идентификатор кодека : A_AC3
    Продолжительность : 1 ч. 59 м.
    Вид битрейта : Постоянный
    Битрейт : 384 Кбит/сек
    Каналы : 6 каналов
    Расположение каналов : Front: L C R, Side: L R, LFE
    Частота : 48,0 КГц
    Битовая глубина : 16 бит
    Метод сжатия : С потерями
    Размер потока : 327 Мбайт (17%)
    Заголовок : MVO [Paradox & Omskbird records]
    Язык : Russian
    Default : Да
    Forced : Нет

    Аудио #2
    Идентификатор : 3
    Формат : AC-3
    Формат/Информация : Audio Coding 3
    Расширение режима : CM (complete main)
    Параметр Endianness формата : Big
    Идентификатор кодека : A_AC3
    Продолжительность : 1 ч. 59 м.
    Вид битрейта : Постоянный
    Битрейт : 384 Кбит/сек
    Каналы : 6 каналов
    Расположение каналов : Front: L C R, Side: L R, LFE
    Частота : 48,0 КГц
    Битовая глубина : 16 бит
    Метод сжатия : С потерями
    Задержка видео : 27 мс.
    Размер потока : 327 Мбайт (17%)
    Язык : English
    Default : Нет
    Forced : Нет
7.0 из 10
голосов: 6
/10
/10
Раздачу отредактировал: grab777 - 20-12-2015, 04:08
По причине: (Обновлено на профессиональный многоголосый перевод)
grab777 20-12-2015, 03:02

Vecher | 21-12-2015, 14:45 | Статус: Оффлайн

Спасибо глянем :) Актёрский состав Хороший!

grab777 | 20-12-2015, 03:02 | Статус: Оффлайн

Без рекламы в начале фильма

knopka | 16-12-2015, 22:27 | Статус: Оффлайн

Чушь полная! Снёс! Для наркош может и нормально будет!

niecke | 16-12-2015, 20:54 | Статус: Онлайн

ДЛЯ КОМЕДИИ ФИЛЬМ СЛИШКОМ ДРАМАТИЧЕН!НО ГРОТЕСК ДОВЕДЁН В НЁМ ДО АБСУРДА!!АКТЁРСКИЙ СОСТАВ-НЕВЕРОЯТНЫЙ,НО В ЦЕЛОМ КИНО НА ЛЮБИТЕЛЯ!!!
Информация
Посетители, находящиеся в группе Гости, не могут оставлять комментарии к данной публикации.