Панель пользователя
Регистрация

Воспользуйтесь социальными сетями для входа на https://freerutor.com

vk odnoklassniki facebook mailru yandex google
Популярное
Счетчик
Голосуй за нас
VIP на сайте
Популярное
Товары интернет магазина
загрузка...

Я - Брюс Ли / I Am Bruce Lee (2012) HDTVRip 720p

Я - Брюс Ли / I Am Bruce Lee (2012) HDTVRip 720p
Участники торрент обмена
Сидов Пиров Скачали
0 0 350
Характеристика
Размер Файлы
2.68 GB
Поделиться раздачей
Документальный
Наименование: Я - Брюс Ли
Оригинальное наименование: I Am Bruce Lee
Категория: Документальный, биография
Произведено: Канада / LeeWay Media, Network Entertainment
Режиссер постановщик: Пит МакКормак
В главных ролях: Брюс Ли, Пол Боуман, Даниэль Болелли, Ричард Бустилло, Карим Абдул-Джаббар, Мухаммед Али, Роберт Бейкер, Джон Т. Бенн, Pierre Barton, Стэфан Боннар
Краткое описание: Этот документальный фильм содержит множество редких фотографий и интервью Брюса Ли. Великие атлеты, актёры, режиссёры и продюсеры делятся своими воспоминаниями о нём.
  • Видео данные: MPEG-4 AVC, 4000 Кбит/с, 1280x720
    Аудио данные: Русский (AC3, 6 ch, 384 Кбит/с)
    Перевод: Профессиональный многоголосый [Первый Кана]
    Продолжительность: 1:27:34
  • Я - Брюс Ли / I Am Bruce Lee (2012) HDTVRip 720p Я - Брюс Ли / I Am Bruce Lee (2012) HDTVRip 720p Я - Брюс Ли / I Am Bruce Lee (2012) HDTVRip 720p
  • General
    Unique ID : 228809043303941127420785191311830399211 (0xAC2304D0604241CABD93E400BCCFB8EB)
    Complete name : E:uTorrent.TempTempI.Am.Bruce.Lee.2012.HDTV.720p.x264-RUS-lrn.mkv
    Format : Matroska
    Format version : Version 4 / Version 2
    File size : 2.68 GiB
    Duration : 1h 27mn
    Overall bit rate : 4 386 Kbps
    Movie name : I.Am.Bruce.Lee.2012.HDTV.720p.x264-RUS-lrn
    Encoded date : UTC 2010-02-22 21:41:31
    Writing application : mkvmerge v5.9.0 ('On The Loose') built on Dec 9 2012 15:37:01
    Writing library : libebml v1.3.0 + libmatroska v1.4.0

    Video
    ID : 1
    Format : AVC
    Format/Info : Advanced Video Codec
    Format profile : High@L4.1
    Format settings, CABAC : Yes
    Format settings, ReFrames : 8 frames
    Codec ID : V_MPEG4/ISO/AVC
    Duration : 1h 27mn
    Bit rate : 4 000 Kbps
    Width : 1 280 pixels
    Height : 720 pixels
    Display aspect ratio : 16:9
    Frame rate mode : Constant
    Frame rate : 25.000 fps
    Color space : YUV
    Chroma subsampling : 4:2:0
    Bit depth : 8 bits
    Scan type : Progressive
    Bits/(Pixel*Frame) : 0.174
    Stream size : 2.39 GiB (89%)
    Writing library : x264 core 148 r2638 7599210
    Encoding settings : cabac=1 / ref=8 / deblock=1:-3:-3 / analyse=0x3:0x133 / me=umh / subme=9 / psy=1 / psy_rd=1.00:0.00 / mixed_ref=1 / me_range=32 / chroma_me=1 / trellis=2 / 8x8dct=1 / cqm=0 / deadzone=21,11 / fast_pskip=1 / chroma_qp_offset=-2 / threads=12 / lookahead_threads=2 / sliced_threads=0 / nr=0 / decimate=1 / interlaced=0 / bluray_compat=0 / constrained_intra=0 / bframes=8 / b_pyramid=2 / b_adapt=2 / b_bias=0 / direct=3 / weightb=1 / open_gop=0 / weightp=2 / keyint=250 / keyint_min=25 / scenecut=40 / intra_refresh=0 / rc_lookahead=50 / rc=2pass / mbtree=1 / bitrate=4000 / ratetol=1.0 / qcomp=0.60 / qpmin=0 / qpmax=69 / qpstep=4 / cplxblur=20.0 / qblur=0.5 / vbv_maxrate=62500 / vbv_bufsize=78125 / nal_hrd=none / filler=0 / ip_ratio=1.40 / aq=1:1.00
    Default : Yes
    Forced : No
    Statistics Tags Issue : mkvmerge v8.5.2 ('Crosses') 32bit 2015-12-15 07:04:54 / mkvmerge v5.9.0 ('On The Loose') built on Dec 9 2012 15:37:01 2010-02-22 21:41:31
    FromStats_BitRate : 3999979
    FromStats_Duration : 01:27:34.280000000
    FromStats_FrameCount : 131357
    FromStats_StreamSize : 2627126376

    Audio
    ID : 2
    Format : AC-3
    Format/Info : Audio Coding 3
    Mode extension : CM (complete main)
    Format settings, Endianness : Big
    Codec ID : A_AC3
    Duration : 1h 27mn
    Bit rate mode : Constant
    Bit rate : 384 Kbps
    Channel(s) : 6 channels
    Channel positions : Front: L C R, Side: L R, LFE
    Sampling rate : 48.0 KHz
    Frame rate : 31.250 fps (1536 spf)
    Compression mode : Lossy
    Stream size : 241 MiB (9%)
    Language : Russian
    Default : Yes
    Forced : No
9.0 из 10
голосов: 6
/10
/10
grab777 16-12-2015, 08:43
Информация
Посетители, находящиеся в группе Гости, не могут оставлять комментарии к данной публикации.