Панель пользователя
Регистрация

Воспользуйтесь социальными сетями для входа на https://freerutor.com

vk odnoklassniki facebook mailru yandex google
Популярное
Счетчик
Голосуй за нас
VIP на сайте
Популярное
Товары интернет магазина
загрузка...

9 дней и одно утро (2014) HDTV 1080i

9 дней и одно утро (2014) HDTV 1080i
Участники торрент обмена
Сидов Пиров Скачали
3 0 119
Характеристика
Размер Файлы
4.17 GB
Релиз группа
Поделиться раздачей
Фильмы (720,1080,Blu-Ray)
Наименование: 9 дней и одно утро
Категория: Драма
Произведено: Россия / SV-Aurum Production
Режиссер постановщик: Вера Сторожева
В главных ролях: Анна Щербинина, Ольга Попова, Ксавье Галле, Сергей Пускепалис, Глеб Пускепалис, Светлана Тома, Сергей Попов, Максим Битюков, Лариса Кривцова, Татьяна Медведева
Краткое описание: Анна, парижская фотомодель, лицо известной косметической фирмы с благотворительной акцией приезжает в старинный русский город. Здесь в детдоме прошло ее детство, но много лет назад Анну удочерила супружеская пара из Франции. Жизнь девушки, казалось бы, устроилась благополучно. Но за девять дней в родных местах Анне предстоит узнать тайну своей настоящей семьи и найти себя…
  • Видео данные: MPEG-TS, 6256 Кбит/с, 1920x1080
    Аудио данные: Русский (AC3, 6 ch, 448 Кбит/с)
    Перевод: Оригинал
    Продолжительность: 01:24:37
  • 9 дней и одно утро (2014) HDTV 1080i 9 дней и одно утро (2014) HDTV 1080i 9 дней и одно утро (2014) HDTV 1080i
  • Общее
    Идентификатор : 1 (0x1)
    Полное имя : F:\Раздача HD\9.2014.HDTV-BLUEBIRD.ts
    Формат : MPEG-TS
    Размер файла : 4,17 Гбайт
    Продолжительность : 1 ч. 24 м.
    Режим общего битрейта : Переменный
    Общий поток : 7057 Кбит/сек
    Максимальный общий битрейт : 35,5 Мбит/сек

    Видео
    Идентификатор : 4113 (0x1011)
    Идентификатор меню : 1 (0x1)
    Формат : AVC
    Формат/Информация : Advanced Video Codec
    Профиль формата : Main@L4.0
    Параметр CABAC формата : Да
    Параметр ReFrames формата : 4 кадра
    Параметр GOP формата : M=4, N=28
    Идентификатор кодека : 27
    Продолжительность : 1 ч. 24 м.
    Вид битрейта : Переменный
    Битрейт : 6256 Кбит/сек
    Максимальный битрейт : 40,0 Мбит/сек
    Ширина : 1920 пикселей
    Высота : 1080 пикселей
    Соотношение сторон : 16:9
    Частота кадров : 25,000 кадров/сек
    Стандарт вещания : Component
    Цветовое пространство : YUV
    Субдискретизация насыщенности : 4:2:0
    Битовая глубина : 8 бит
    Тип развёртки : Чересстрочная
    Порядок развёртки : Верхнее поле первое
    Бит/(Пиксели*Кадры) : 0.121
    Размер потока : 3,70 Гбайт (89%)
    Основные цвета : BT.709
    Характеристики трансфера : BT.709
    Коэффициенты матрицы : BT.709

    Аудио
    Идентификатор : 4352 (0x1100)
    Идентификатор меню : 1 (0x1)
    Формат : AC-3
    Формат/Информация : Audio Coding 3
    Расширение режима : CM (complete main)
    Параметр Endianness формата : Big
    Идентификатор кодека : 129
    Продолжительность : 1 ч. 24 м.
    Вид битрейта : Постоянный
    Битрейт : 448 Кбит/сек
    Каналы : 6 каналов
    Расположение каналов : Front: L C R, Side: L R, LFE
    Частота : 48,0 КГц
    Битовая глубина : 16 бит
    Метод сжатия : С потерями
    Задержка видео : 25 мс.
    Размер потока : 271 Мбайт (6%)
    Язык : Russian
7.0 из 10
голосов: 3
/10
/10
grab777 16-12-2015, 05:37
Информация
Посетители, находящиеся в группе Гости, не могут оставлять комментарии к данной публикации.