Панель пользователя
Регистрация

Воспользуйтесь социальными сетями для входа на https://freerutor.com

vk odnoklassniki facebook mailru yandex google
Популярное
Счетчик
Голосуй за нас
VIP на сайте
Популярное
Товары интернет магазина
загрузка...

Другая жизнь женщины / La vie d'une autre (2012) BDRip-AVC

Другая жизнь женщины / La vie d'une autre (2012) BDRip-AVC
Участники торрент обмена
Сидов Пиров Скачали
0 0 44
Характеристика
Размер Файлы
1.84 GB
Поделиться раздачей
Фильмы (AVC)
Наименование: Другая жизнь женщины
Оригинальное наименование: La vie d'une autre
Категория: Драма, мелодрама, комедия, детектив
Произведено: Франция, Люксембург, Бельгия / ARP Sélection, Ciné Cinémas, Soficinéma 8
Режиссер постановщик: Сильви Тестю
В главных ролях: Жюльет Бинош, Матьё Кассовиц, Ор Атика, Даниель Лебрюн, Вернон Добчефф, Ив Дашари-Ле Беон, Франсуа Берлеан, Мари-Кристин Адам, Николас Карпентье, Альберт Спайнер
Краткое описание: Мари исполнилось 40. Но странный эффект: однажды утром она проснулась с ощущением, что 15 последних лет её жизни как не бывало. А та любовь, которая на самом деле уже подходит к концу — до развода 4 дня — еще только начинается. Можно ли вернуть прошлое за 4 дня и что такое ты, прежняя, застенчивая провинциалка в роли преуспевающей бизнес-леди?
  • Видео данные: MPEG-4 AVC, 1972 Кбит/с, 1024x436
    Аудио данные: Русский (AC3, 2 ch, 224 Кбит/с), французский (AC3, 6 ch, 448 Кбит/с)
    Перевод: Профессиональный многоголосый
    Субтитры: Русские
    Продолжительность: 01:37:33
  • Другая жизнь женщины / La vie d'une autre (2012) BDRip-AVC Другая жизнь женщины / La vie d'une autre (2012) BDRip-AVC Другая жизнь женщины / La vie d'une autre (2012) BDRip-AVC
  • Общее
    Уникальный идентификатор : 208089506016692490736980454093686660406 (0x9C8C94C15548A1E3BB8141AD46855D36)
    Полное имя : D:\Video\Другая жизнь женщины.2012.BDRip.AVC.mkv
    Формат : Matroska
    Версия формата : Version 4 / Version 2
    Размер файла : 1,84 Гбайт
    Продолжительность : 1 ч. 37 м.
    Общий поток : 2697 Кбит/сек
    Дата кодирования : UTC 2015-12-13 04:02:59
    Программа кодирования : mkvmerge v8.2.0 ('World of Adventure') 64bit
    Библиотека кодирования : libebml v1.3.1 + libmatroska v1.4.2
    DURATION : 01:32:18.704000000
    NUMBER_OF_FRAMES : 768
    NUMBER_OF_BYTES : 44642
    _STATISTICS_WRITING_APP : mkvmerge v8.2.0 ('World of Adventure') 64bit
    _STATISTICS_WRITING_DATE_UTC : 2015-12-13 04:02:59
    _STATISTICS_TAGS : BPS DURATION NUMBER_OF_FRAMES NUMBER_OF_BYTES

    Видео
    Идентификатор : 1
    Формат : AVC
    Формат/Информация : Advanced Video Codec
    Профиль формата : High@L4.1
    Параметр CABAC формата : Да
    Параметр ReFrames формата : 9 кадров
    Идентификатор кодека : V_MPEG4/ISO/AVC
    Продолжительность : 1 ч. 37 м.
    Битрейт : 1972 Кбит/сек
    Ширина : 1024 пикселя
    Высота : 436 пикселей
    Соотношение сторон : 2,35:1
    Режим частоты кадров : Постоянный
    Частота кадров : 23,976 кадра/сек
    Цветовое пространство : YUV
    Субдискретизация насыщенности : 4:2:0
    Битовая глубина : 8 бит
    Тип развёртки : Прогрессивная
    Бит/(Пиксели*Кадры) : 0.184
    Размер потока : 1,34 Гбайт (73%)
    Заголовок : BDRip by msltel
    Библиотека кодирования : x264 core 146 r2538 121396c
    Настройки программы : cabac=1 / ref=9 / deblock=1:-1:-1 / analyse=0x3:0x113 / me=umh / subme=10 / psy=1 / psy_rd=1.00:0.15 / mixed_ref=1 / me_range=32 / chroma_me=1 / trellis=2 / 8x8dct=1 / cqm=0 / deadzone=21,11 / fast_pskip=1 / chroma_qp_offset=-3 / threads=6 / lookahead_threads=1 / sliced_threads=0 / nr=0 / decimate=1 / interlaced=0 / bluray_compat=0 / constrained_intra=0 / bframes=8 / b_pyramid=2 / b_adapt=2 / b_bias=0 / direct=1 / weightb=1 / open_gop=0 / weightp=2 / keyint=230 / keyint_min=23 / scenecut=40 / intra_refresh=0 / rc_lookahead=40 / rc=crf / mbtree=0 / crf=16.8 / qcomp=0.60 / qpmin=0 / qpmax=69 / qpstep=4 / vbv_maxrate=40000 / vbv_bufsize=50000 / crf_max=0.0 / nal_hrd=none / filler=0 / ip_ratio=1.40 / pb_ratio=1.30 / aq=1:1.00
    Язык : French
    Default : Да
    Forced : Нет
    DURATION : 01:37:33.306000000
    NUMBER_OF_FRAMES : 140339
    NUMBER_OF_BYTES : 1480365795
    _STATISTICS_WRITING_APP : mkvmerge v8.2.0 ('World of Adventure') 64bit
    _STATISTICS_WRITING_DATE_UTC : 2015-12-13 04:02:59
    _STATISTICS_TAGS : BPS DURATION NUMBER_OF_FRAMES NUMBER_OF_BYTES

    Аудио #1
    Идентификатор : 2
    Формат : AC-3
    Формат/Информация : Audio Coding 3
    Расширение режима : CM (complete main)
    Параметр Endianness формата : Big
    Идентификатор кодека : A_AC3
    Продолжительность : 1 ч. 37 м.
    Вид битрейта : Постоянный
    Битрейт : 224 Кбит/сек
    Каналы : 2 канала
    Расположение каналов : Front: L R
    Частота : 48,0 КГц
    Метод сжатия : С потерями
    Размер потока : 156 Мбайт (8%)
    Заголовок : MVO
    Язык : Russian
    Default : Да
    Forced : Нет

    Аудио #2
    Идентификатор : 3
    Формат : AC-3
    Формат/Информация : Audio Coding 3
    Расширение режима : CM (complete main)
    Параметр Endianness формата : Big
    Идентификатор кодека : A_AC3
    Продолжительность : 1 ч. 37 м.
    Вид битрейта : Постоянный
    Битрейт : 448 Кбит/сек
    Каналы : 6 каналов
    Расположение каналов : Front: L C R, Side: L R, LFE
    Частота : 48,0 КГц
    Метод сжатия : С потерями
    Размер потока : 313 Мбайт (17%)
    Заголовок : Original
    Язык : French
    Default : Нет
    Forced : Нет

    Текст
    Идентификатор : 4
    Формат : UTF-8
    Идентификатор кодека : S_TEXT/UTF8
    Идентификатор кодека/Информация : UTF-8 Plain Text
    Заголовок : русский (kitmur)
    Язык : Russian
    Default : Нет
    Forced : Нет
10.0 из 10
голосов: 2
/10
/10
grab777 15-12-2015, 11:45
Информация
Посетители, находящиеся в группе Гости, не могут оставлять комментарии к данной публикации.