Панель пользователя
Регистрация

Воспользуйтесь социальными сетями для входа на https://freerutor.com

vk odnoklassniki facebook mailru yandex google
Популярное
Счетчик
Голосуй за нас
VIP на сайте
Популярное
Товары интернет магазина
загрузка...

Высший класс / The Leisure Class (2015) HDTV 1080i

Высший класс / The Leisure Class (2015) HDTV 1080i
Участники торрент обмена
Сидов Пиров Скачали
0 0 327
Характеристика
Размер Файлы
4.51 GB
Поделиться раздачей
Фильмы (720,1080,Blu-Ray)
Наименование: Высший класс
Оригинальное наименование: The Leisure Class
Категория: Комедия
Произведено: США / HBO Films, Adaptive Studios, Pearl Street Films
Режиссер: Джейсон Манн
В ролях: Эд Викс, Бриджет Риган, Том Белл, Мелани Занетти, Скотти Томпсон, Брюс Дэвисон, Бренда Стронг, Кристин Лэйкин, Рори Нокс Джонстон, Лорен Рубин
Краткое описание: Уильям — добродушный англичанин-аферист, который выдает себя за человека из высшего общества и собирается прибрать к рукам деньги семьи сенатора Эдварда Лэнгстона, женившись на его дочери Фионе. В разгар приготовлений к свадьбе к Уильяму приезжает его брат Леонард, который своими эксцентричными выходками грозит нарушить все планы Уильяма на благополучную свадьбу и удачную аферу. Одновременно Уильям начинает понимать, что по-настоящему влюблен в Фиону и раскаивается в своих циничных замыслах.
  • Видео данные: MPEG-TS, 6726 Кбит/с, 1920x1080
    Аудио данные: Русский (MP3, 2 ch, 192 Кбит/с), (AC3, 6 ch, 384 Кбит/с), английский (MP3, 2 ch, 192 Кбит/с)
    Перевод: Профессиональный многоголосый [AMedia HD]
    Продолжительность: 01:21:53
  • Высший класс / The Leisure Class (2015) HDTV 1080i Высший класс / The Leisure Class (2015) HDTV 1080i Высший класс / The Leisure Class (2015) HDTV 1080i
  • Общее
    Идентификатор : 16 (0x10)
    Полное имя : F:\КиноЗАЛ - 2\The Leisure Class_HD.ts
    Формат : MPEG-TS
    Размер файла : 4,51 Гбайт
    Продолжительность : 1 ч. 21 м.
    Режим общего битрейта : Переменный
    Общий поток : 7892 Кбит/сек

    Видео
    Идентификатор : 1812 (0x714)
    Идентификатор меню : 812 (0x32C)
    Формат : AVC
    Формат/Информация : Advanced Video Codec
    Профиль формата : High@L4.0
    Параметр CABAC формата : Да
    Параметр ReFrames формата : 4 кадра
    Идентификатор кодека : 27
    Продолжительность : 1 ч. 21 м.
    Битрейт : 6726 Кбит/сек
    Ширина : 1920 пикселей
    Высота : 1080 пикселей
    Соотношение сторон : 16:9
    Частота кадров : 25,000 кадров/сек
    Стандарт вещания : PAL
    Цветовое пространство : YUV
    Субдискретизация насыщенности : 4:2:0
    Битовая глубина : 8 бит
    Тип развёртки : MBAFF
    Бит/(Пиксели*Кадры) : 0.130
    Размер потока : 3,85 Гбайт (85%)
    Основные цвета : BT.709
    Характеристики трансфера : BT.709
    Коэффициенты матрицы : BT.709

    Аудио #1
    Идентификатор : 2812 (0xAFC)
    Идентификатор меню : 812 (0x32C)
    Формат : MPEG Audio
    Версия формата : Version 1
    Профиль формата : Layer 2
    Идентификатор кодека : 4
    Продолжительность : 1 ч. 21 м.
    Вид битрейта : Постоянный
    Битрейт : 192 Кбит/сек
    Каналы : 2 канала
    Частота : 48,0 КГц
    Метод сжатия : С потерями
    Задержка видео : 160 мс.
    Размер потока : 112 Мбайт (2%)
    Язык : std
    Язык, дополнительно : Clean effects

    Аудио #2
    Идентификатор : 3812 (0xEE4)
    Идентификатор меню : 812 (0x32C)
    Формат : MPEG Audio
    Версия формата : Version 1
    Профиль формата : Layer 2
    Идентификатор кодека : 4
    Продолжительность : 1 ч. 21 м.
    Вид битрейта : Постоянный
    Битрейт : 192 Кбит/сек
    Каналы : 2 канала
    Частота : 48,0 КГц
    Метод сжатия : С потерями
    Задержка видео : 160 мс.
    Размер потока : 112 Мбайт (2%)
    Язык : std
    Язык, дополнительно : Clean effects

    Аудио #3
    Идентификатор : 4812 (0x12CC)
    Идентификатор меню : 812 (0x32C)
    Формат : AC-3
    Формат/Информация : Audio Coding 3
    Расширение режима : CM (complete main)
    Параметр Endianness формата : Big
    Идентификатор кодека : 6
    Продолжительность : 1 ч. 21 м.
    Вид битрейта : Постоянный
    Битрейт : 384 Кбит/сек
    Каналы : 6 каналов
    Расположение каналов : Front: L C R, Side: L R, LFE
    Частота : 48,0 КГц
    Битовая глубина : 16 бит
    Метод сжатия : С потерями
    Задержка видео : 90 мс.
    Размер потока : 225 Мбайт (5%)
    Язык : std
    Язык, дополнительно : Clean effects

    Текст
    Идентификатор : 63 (0x3F)-100
    Идентификатор меню : 812 (0x32C)
    Формат : Teletext

    Меню
    Идентификатор : 812 (0x32C)
    Идентификатор меню : 812 (0x32C)
    Продолжительность : 1 ч. 21 м.
    Список : 1812 (0x714) (AVC) / 2812 (0xAFC) (MPEG Audio, std) / 3812 (0xEE4) (MPEG Audio, std) / 4812 (0x12CC) (AC-3, std) / 63 (0x3F) ()
    Язык : / std / std / std
5.0 из 10
голосов: 1
/10
/10
grab777 15-12-2015, 00:46
Информация
Посетители, находящиеся в группе Гости, не могут оставлять комментарии к данной публикации.